<?xml version="1.0" standalone="no"?>
<!DOCTYPE svg PUBLIC "-//W3C//DTD SVG 1.1//EN" "http://www.w3.org/Graphics/SVG/1.1/DTD/svg11.dtd" >
<svg xmlns="http://www.w3.org/2000/svg">
<metadata>Generated by IcoMoon</metadata>
<defs>
<font id="Quenza-Salespage" horiz-adv-x="1024">
<font-face units-per-em="1024" ascent="960" descent="-64" />
<missing-glyph horiz-adv-x="1024" />
<glyph unicode="&#x20;" horiz-adv-x="512" d="" />
<glyph unicode="&#xe900;" glyph-name="folder-check" d="M64 192c-35.285 0-64 28.715-64 64v640c0 35.285 28.715 64 64 64h229.632c24.405 0 46.336-13.568 57.216-35.371l40.448-80.811c3.627-7.296 10.965-11.819 19.072-11.819h421.632c35.285 0 64-28.715 64-64v-170.667c0-11.776-9.557-21.333-21.333-21.333s-21.333 9.557-21.333 21.333v170.667c0 11.776-9.557 21.333-21.333 21.333h-421.632c-24.405 0-46.336 13.568-57.216 35.371l-40.448 80.811c-3.627 7.296-10.965 11.819-19.072 11.819h-229.632c-11.776 0-21.333-9.557-21.333-21.333v-640c0-11.776 9.557-21.333 21.333-21.333h298.667c11.776 0 21.333-9.557 21.333-21.333s-9.557-21.333-21.333-21.333h-298.667zM746.667-64c-152.917 0-277.333 124.416-277.333 277.333s124.416 277.333 277.333 277.333 277.333-124.416 277.333-277.333-124.416-277.333-277.333-277.333zM746.667 448c-129.408 0-234.667-105.259-234.667-234.667s105.259-234.667 234.667-234.667 234.667 105.259 234.667 234.667-105.259 234.667-234.667 234.667zM711.125 88.363c-11.605 0-22.656 3.712-32 10.709-1.963 1.451-3.883 3.115-5.675 4.907l-64 64c-8.32 8.32-8.32 21.845 0 30.165 4.011 4.011 9.387 6.229 15.104 6.229s11.051-2.219 15.104-6.229l64-64c0.341-0.341 0.725-0.64 1.109-0.939 1.877-1.408 4.096-2.176 6.4-2.176 0.512 0 1.067 0.043 1.579 0.085 2.859 0.427 5.291 1.835 7.040 4.181l123.947 165.205c3.968 5.333 10.368 8.533 17.067 8.533 4.651 0 9.088-1.493 12.8-4.267 4.565-3.413 7.509-8.405 8.32-14.037s-0.64-11.264-4.053-15.829l-123.947-165.205c-8.576-11.435-21.077-18.773-35.2-20.821-2.56-0.341-5.077-0.512-7.595-0.512z" />
<glyph unicode="&#xe901;" glyph-name="notes-disable" d="M64 64c-35.285 0-64 28.715-64 64v682.667c0 35.285 28.715 64 64 64h106.667v64c0 11.776 9.557 21.333 21.333 21.333s21.333-9.557 21.333-21.333v-64h128v64c0 11.776 9.557 21.333 21.333 21.333s21.333-9.557 21.333-21.333v-64h128v64c0 11.776 9.557 21.333 21.333 21.333s21.333-9.557 21.333-21.333v-64h106.667c35.285 0 64-28.715 64-64v-213.333c0-11.776-9.557-21.333-21.333-21.333s-21.333 9.557-21.333 21.333v213.333c0 11.776-9.557 21.333-21.333 21.333h-106.667v-64c0-11.776-9.557-21.333-21.333-21.333s-21.333 9.557-21.333 21.333v64h-128v-64c0-11.776-9.557-21.333-21.333-21.333s-21.333 9.557-21.333 21.333v64h-128v-64c0-11.776-9.557-21.333-21.333-21.333s-21.333 9.557-21.333 21.333v64h-106.667c-11.776 0-21.333-9.557-21.333-21.333v-682.667c0-11.776 9.557-21.333 21.333-21.333h341.333c11.776 0 21.333-9.557 21.333-21.333s-9.557-21.333-21.333-21.333h-341.333zM746.667-64c-73.472 0-142.72 28.544-195.072 80.384-0.384 0.299-0.725 0.597-1.024 0.896s-0.597 0.64-0.896 1.024c-51.797 52.309-80.341 121.557-80.341 195.029 0 152.917 124.416 277.333 277.333 277.333 73.344 0 142.421-28.416 194.731-80.043 0.512-0.384 1.024-0.811 1.365-1.152 0.512-0.512 0.939-1.067 1.28-1.536 51.456-51.968 79.957-121.173 79.957-194.603 0-152.917-124.416-277.333-277.333-277.333zM596.608 33.109c42.155-35.2 95.019-54.443 150.059-54.443 129.408 0 234.667 105.259 234.667 234.667 0 55.040-19.243 107.904-54.443 150.059l-330.283-330.283zM746.667 448c-129.408 0-234.667-105.259-234.667-234.667 0-55.040 19.243-107.904 54.443-150.059l330.325 330.325c-42.197 35.157-95.061 54.4-150.101 54.4z" />
<glyph unicode="&#xe902;" glyph-name="single-neutral-actions-refresh" d="M149.333-63.915c-11.008 0-20.352 8.576-21.248 19.541l-19.712 236.459h-87.040c-11.776 0-21.333 9.557-21.333 21.333v149.333c-0.085 100.437 63.787 189.781 158.848 222.208 24.491 8.363 49.92 12.587 75.605 12.587 100.523 0 189.824-63.829 222.251-158.891 1.835-5.376 1.493-11.179-1.024-16.299s-6.869-8.96-12.245-10.795c-2.219-0.768-4.565-1.152-6.912-1.152v0c-9.131 0-17.237 5.803-20.181 14.464-26.539 77.739-99.627 130.005-181.888 130.005-20.992 0-41.813-3.456-61.824-10.325-77.781-26.539-130.005-99.584-129.963-181.803v-128h85.333c11.008 0 20.352-8.576 21.248-19.541l19.712-236.459h131.413l19.712 236.459c0.896 10.923 10.24 19.541 21.248 19.541h42.667c11.776 0 21.333-9.557 21.333-21.333s-9.557-21.333-21.333-21.333h-23.040l-19.712-236.459c-0.939-10.965-10.24-19.541-21.248-19.541h-170.667zM234.667 618.752c-94.123 0-170.667 76.544-170.667 170.667s76.544 170.667 170.667 170.667 170.667-76.544 170.667-170.667-76.544-170.667-170.667-170.667zM234.667 917.419c-70.571 0-128-57.429-128-128s57.429-128 128-128 128 57.429 128 128-57.429 128-128 128zM752.555-64.213c-28.331 0-56.405 4.651-83.413 13.867-72.064 24.576-129.451 80.768-157.141 150.443v-78.677c0-11.776-9.557-21.333-21.333-21.333s-21.333 9.557-21.333 21.333v149.333c0 11.776 9.557 21.333 21.333 21.333h149.333c11.776 0 21.333-9.557 21.333-21.333s-9.557-21.333-21.333-21.333h-98.688c15.915-74.283 69.248-134.699 141.611-159.36 22.571-7.68 45.995-11.605 69.675-11.605 92.715 0 175.104 58.923 205.013 146.56 2.944 8.661 11.051 14.464 20.181 14.464 2.347 0 4.693-0.384 6.912-1.195 5.333-1.792 9.685-5.632 12.203-10.752s2.901-10.923 1.024-16.299c-35.712-104.917-134.357-175.445-245.376-175.445zM853.333 234.752c-11.776 0-21.333 9.557-21.333 21.333s9.557 21.333 21.333 21.333h98.645c-15.915 74.283-69.205 134.699-141.568 159.36-22.741 7.765-46.336 11.691-70.059 11.691-33.109 0-65.152-7.509-95.275-22.272-51.883-25.472-90.709-69.675-109.355-124.373-2.944-8.661-11.051-14.464-20.181-14.464-2.347 0-4.693 0.384-6.955 1.152-5.333 1.792-9.685 5.632-12.203 10.752s-2.901 10.88-1.067 16.299c22.357 65.493 68.864 118.4 130.944 148.907 36.053 17.707 74.411 26.709 114.048 26.709 28.416 0 56.619-4.693 83.84-13.995 72.021-24.576 129.451-80.768 157.141-150.443v78.677c0 11.776 9.557 21.333 21.333 21.333s21.333-9.557 21.333-21.333v-149.333c0-11.776-9.557-21.333-21.333-21.333h-149.291z" />
<glyph unicode="&#xe903;" glyph-name="single-neutral-increase" d="M490.155 538.027c-4.821 0-9.557 1.664-13.312 4.693-4.437 3.541-7.253 8.619-7.893 14.293s0.981 11.221 4.523 15.701l125.397 156.885c12.288 15.36 30.464 24.149 49.92 24.149 12.629 0 24.96-3.755 35.584-10.88l63.787-42.667c3.499-2.347 7.595-3.584 11.776-3.584 6.315 0 12.245 2.773 16.299 7.552l180.437 213.163h-167.339c-11.776 0-21.333 9.557-21.333 21.333s9.557 21.333 21.333 21.333h213.333c0.981 0 2.773-0.299 3.712-0.555v0c0.341 0 1.835-0.213 3.584-0.853 1.792-0.64 3.115-1.493 3.968-2.048 0 0 0 0 0 0 0.085 0 1.28-0.555 2.475-1.579 0.469-0.384 0.939-0.896 1.408-1.408 0.981-1.024 1.621-1.963 2.091-2.645 0.64-0.853 1.451-1.92 2.133-3.371 0.64-1.365 0.939-2.688 1.109-3.499 0.256-1.024 0.597-2.176 0.725-3.541 0.085-0.597 0.128-1.237 0.128-1.835v-213.333c0-11.776-9.557-21.333-21.333-21.333s-21.333 9.557-21.333 21.333v155.093l-172.459-203.819c-12.203-14.421-29.995-22.656-48.853-22.656-12.672 0-24.917 3.712-35.499 10.752l-63.829 42.667c-3.541 2.389-7.68 3.627-11.904 3.627-6.443 0-12.501-2.944-16.597-8.064l-125.397-156.928c-4.053-5.077-10.112-7.979-16.64-7.979zM149.333-64c-11.008 0-20.352 8.576-21.248 19.541l-19.712 236.459h-87.040c-11.776 0-21.333 9.557-21.333 21.333v149.333c0 129.408 105.259 234.667 234.667 234.667s234.667-105.259 234.667-234.667v-149.333c0-11.776-9.557-21.333-21.333-21.333h-87.040l-19.712-236.459c-0.896-10.965-10.24-19.541-21.248-19.541h-170.667zM300.373-21.333l19.712 236.459c0.896 10.965 10.24 19.541 21.248 19.541h85.333v128c0 105.856-86.144 192-192 192s-192-86.144-192-192v-128h85.333c11.008 0 20.352-8.576 21.248-19.541l19.712-236.459h131.413zM234.667 618.667c-94.123 0-170.667 76.544-170.667 170.667s76.544 170.667 170.667 170.667 170.667-76.544 170.667-170.667-76.544-170.667-170.667-170.667zM234.667 917.333c-70.571 0-128-57.429-128-128s57.429-128 128-128 128 57.429 128 128-57.429 128-128 128z" />
<glyph unicode="&#xe904;" glyph-name="single-neutral-statics-2" d="M554.667 320c-11.776 0-21.333 9.557-21.333 21.333s9.557 21.333 21.333 21.333h405.333c11.776 0 21.333 9.557 21.333 21.333v512c0 11.776-9.557 21.333-21.333 21.333h-512c-11.776 0-21.333 9.557-21.333 21.333s9.557 21.333 21.333 21.333h512c35.285 0 64-28.715 64-64v-512c0-35.285-28.715-64-64-64h-405.333zM810.667 448c-23.552 0-42.667 19.157-42.667 42.667v256c0 23.509 19.115 42.667 42.667 42.667h42.667c23.552 0 42.667-19.157 42.667-42.667v-256c0-23.509-19.115-42.667-42.667-42.667h-42.667zM810.667 490.667h42.667v256h-42.667v-256zM149.333-64c-11.008 0-20.352 8.576-21.248 19.541l-19.712 236.459h-87.040c-11.776 0-21.333 9.557-21.333 21.333v149.333c0 129.408 105.259 234.667 234.667 234.667s234.667-105.259 234.667-234.667v-149.333c0-11.776-9.557-21.333-21.333-21.333h-87.040l-19.712-236.459c-0.896-10.965-10.24-19.541-21.248-19.541h-170.667zM300.373-21.333l19.712 236.459c0.896 10.965 10.24 19.541 21.248 19.541h85.333v128c0 105.856-86.144 192-192 192s-192-86.144-192-192v-128h85.333c11.008 0 20.352-8.576 21.248-19.541l19.712-236.459h131.413zM234.667 618.667c-94.123 0-170.667 76.544-170.667 170.667s76.544 170.667 170.667 170.667 170.667-76.544 170.667-170.667-76.544-170.667-170.667-170.667zM234.667 917.333c-70.571 0-128-57.429-128-128s57.429-128 128-128 128 57.429 128 128-57.429 128-128 128zM640 448c-23.552 0-42.667 19.157-42.667 42.667v170.667c0 23.509 19.115 42.667 42.667 42.667h42.667c23.552 0 42.667-19.157 42.667-42.667v-170.667c0-23.509-19.115-42.667-42.667-42.667h-42.667zM640 490.667h42.667v170.667h-42.667v-170.667z" />
<glyph unicode="&#xe905;" glyph-name="time-clock-circle" d="M511.957-64.043c-282.325 0-512 229.675-512 512s229.675 512 512 512c282.325 0 512-229.675 512-512s-229.675-512-512-512zM511.957 917.291c-258.773 0-469.333-210.56-469.333-469.333s210.56-469.333 469.333-469.333 469.333 210.56 469.333 469.333-210.56 469.333-469.333 469.333zM768 191.957c-5.333 0-10.453 2.005-14.421 5.589l-256 234.667c-4.395 4.011-6.912 9.771-6.912 15.744v234.667c0 11.776 9.557 21.333 21.333 21.333s21.333-9.557 21.333-21.333v-225.28l249.088-228.309c4.181-3.84 6.656-9.088 6.912-14.805 0.256-5.675-1.749-11.136-5.589-15.36-4.053-4.395-9.771-6.912-15.744-6.912z" />
<glyph unicode="&#xe906;" glyph-name="stars" horiz-adv-x="5684" d="M530.65 962.22c-30.64-12.434-55.063-57.284-95.473-175.847-15.098-43.962-33.748-92.808-41.297-108.794-22.203-44.85-19.539-44.406-176.291-44.406s-174.515-2.664-200.715-31.528c-19.539-21.315-20.427-27.532-7.105-53.731 15.542-29.308 51.511-62.612 139.879-129.221 44.406-33.748 87.036-68.385 94.585-77.71 21.759-26.199 19.539-42.186-24.867-173.183-47.958-141.211-52.843-179.844-25.311-206.931 9.325-9.769 15.542-11.546 35.081-11.546 32.416 0 61.28 13.322 129.665 60.836 106.574 73.27 140.323 94.585 157.197 99.913 15.542 4.441 19.095 3.997 42.63-7.993 13.766-7.549 63.056-41.742 109.239-76.822 91.476-69.273 126.557-89.256 158.085-89.256 35.525 0 53.287 21.759 53.287 65.277 0 30.64-10.213 73.27-37.745 161.193-27.532 88.368-35.081 125.669-28.42 145.207 5.773 17.762 36.857 43.518 128.333 106.13 67.053 46.182 115.899 87.924 127.001 108.794 8.881 17.762 7.993 44.85-2.664 58.172-21.759 27.976-54.619 34.193-204.267 38.633-143.431 3.997-145.207 4.885-167.41 49.291-7.993 15.986-24.423 63.5-36.857 106.13-38.633 132.774-57.728 170.963-91.476 185.173-16.43 7.105-22.203 7.105-35.081 2.22zM1676.323 958.224c-32.86-20.427-47.514-48.846-91.92-175.847-17.318-49.291-35.969-98.581-41.742-110.127-19.095-37.301-15.098-36.413-181.62-39.077-127.889-2.22-148.76-3.552-164.302-10.213-39.077-17.318-49.291-40.853-33.748-76.378 11.99-27.532 42.63-56.395 125.669-119.008 84.815-63.5 111.903-87.48 119.008-105.242 7.549-17.762 0.888-44.85-39.521-158.973-34.193-98.137-42.63-132.33-39.521-166.078 4.885-50.623 49.735-63.056 111.015-31.084 17.762 9.325 65.721 40.409 106.574 68.829 75.046 52.399 119.896 78.598 134.994 78.598 15.098-0.444 51.511-23.535 134.994-87.036 93.696-71.049 128.333-90.588 160.305-90.588 17.318 0 24.423 2.664 35.969 12.878 12.878 11.101 14.21 15.542 15.986 42.186 2.664 38.633-2.664 62.612-35.081 166.966-18.206 59.504-27.532 97.249-29.308 120.34l-2.664 34.193 20.427 19.539c11.546 10.657 57.284 44.85 102.134 75.934s91.92 66.609 104.798 78.598c63.944 61.28 45.294 112.791-45.738 126.113-11.99 1.776-73.27 4.885-135.882 6.661-135.438 3.997-141.211 5.329-160.749 44.85-6.661 13.322-24.867 66.609-40.409 117.676-15.542 51.511-33.748 105.686-40.409 120.34-23.091 51.511-59.948 74.602-89.256 55.951zM2830.876 960c-31.528-13.766-51.511-50.623-93.252-171.407-16.43-47.514-35.525-98.137-42.63-111.903-21.315-42.63-15.098-40.853-183.84-43.518-127.889-2.22-148.76-3.552-164.302-10.213-38.633-17.318-49.291-41.297-34.193-74.602 11.99-27.088 44.85-58.172 127.445-120.784 119.452-91.032 126.113-99.025 117.676-142.099-2.664-15.098-18.206-63.944-34.193-109.239-45.294-129.665-52.843-166.078-39.521-197.606 8.881-20.871 22.647-29.308 49.291-29.308 31.528 0 69.273 19.539 155.421 79.931 79.931 55.951 108.35 73.27 131.441 80.375 13.766 4.441 18.65 3.552 38.189-6.217 12.434-6.661 61.28-40.853 108.35-76.378 99.469-75.046 128.333-91.032 161.193-91.032 37.745 0.444 51.511 17.762 51.511 65.721 0 37.301-4.441 55.951-38.633 167.41-14.654 47.958-25.311 91.92-26.644 110.127l-2.664 30.196 26.199 25.311c14.654 13.766 54.175 44.406 88.368 67.497 120.34 82.151 149.648 111.015 150.536 148.76 0.888 32.416-26.199 52.399-83.483 62.168-9.325 1.332-69.273 4.441-133.218 6.217-128.777 3.997-142.099 6.661-158.085 32.416-8.437 13.766-20.427 48.846-59.948 178.956-33.304 108.794-67.941 148.76-111.015 129.221zM3980.989 960c-29.752-12.878-48.402-45.294-83.927-146.984-41.742-119.452-55.063-150.98-69.717-164.746l-13.322-12.878-149.648-2.22c-148.76-2.22-149.648-2.22-171.851-13.322-15.986-7.993-24.423-15.986-30.196-27.532-18.65-38.189 11.99-77.266 131.886-167.41 87.924-66.609 118.12-95.917 118.12-115.011 0-18.206-12.878-63.056-45.738-157.197-43.518-124.781-47.514-163.858-20.871-190.945 10.657-10.657 15.986-12.434 36.857-12.434 32.86 0 73.714 21.315 167.41 87.036 67.497 47.514 118.12 77.266 132.33 77.266s50.623-23.091 130.997-83.483c103.466-78.154 131.886-94.141 166.078-94.141 28.864 0 42.186 10.657 50.179 39.965 7.549 27.532-0.888 71.049-34.193 182.064-15.986 52.399-29.752 107.906-31.084 122.56-2.664 27.088-2.22 27.532 15.986 47.514 10.213 11.101 54.175 44.406 97.249 74.602 43.074 29.752 88.368 62.168 100.357 72.382 75.49 62.168 65.277 119.896-23.535 135.882-15.542 2.664-80.375 6.661-144.319 8.437-101.69 2.664-118.564 4.441-133.662 11.99-23.535 11.546-32.86 31.972-67.053 143.875-41.297 137.214-56.84 168.742-87.924 183.84-18.206 8.437-22.647 8.437-40.409 0.888zM5129.325 958.668c-30.196-15.098-48.402-49.291-87.48-162.526-34.193-99.913-48.846-132.774-64.389-147.872l-13.322-12.878-149.648-2.22c-162.082-2.664-169.186-3.552-194.054-28.42-8.437-8.437-11.101-15.986-11.101-29.308 0-39.077 26.199-67.941 139.879-154.088 39.077-29.752 80.819-63.944 92.808-76.822 21.315-22.647 21.759-23.535 19.095-45.738-2.22-22.647-13.322-58.616-53.731-174.959-43.518-125.225-35.969-174.515 26.644-174.515 31.528 0 75.934 23.091 165.634 86.147 67.941 47.958 119.008 78.154 132.774 78.154 15.542 0 51.511-22.647 136.326-86.592 99.025-74.602 127.889-91.032 161.193-91.032 27.976 0 42.186 10.657 49.735 37.301 9.325 32.86 0.444 75.49-43.962 220.253-10.213 32.86-19.539 71.938-21.315 87.036-2.22 26.199-2.22 27.532 13.322 44.406 15.542 17.318 35.969 32.416 135.882 102.134 63.056 43.518 94.141 71.493 108.794 98.137 13.766 24.423 14.21 27.532 2.664 47.070-20.427 34.637-55.507 42.186-214.925 47.070-136.326 3.997-142.543 5.773-159.417 39.077-6.217 11.546-18.206 45.294-27.532 74.602-39.521 129.665-52.399 166.966-65.721 189.169-23.535 38.633-49.735 51.067-78.154 36.413z" />
<glyph unicode="&#xe907;" glyph-name="reply" d="M247.467 887.467c4.267-8.533 8.533-12.8 8.533-21.333s-4.267-17.067-8.533-25.6l-136.533-136.533h563.2c192 0 349.867-157.867 349.867-349.867s-157.867-349.867-349.867-349.867h-256c-17.067 0-34.133 12.8-34.133 34.133 0 12.8 12.8 25.6 34.133 25.6h256c157.867 0 290.133 128 290.133 285.867s-128 290.133-290.133 290.133h-563.2l136.533-136.533c4.267-8.533 8.533-12.8 8.533-21.333s-4.267-17.067-8.533-21.333c-8.533-8.533-12.8-12.8-25.6-12.8s-17.067 4.267-21.333 8.533l-192 192c0 4.267-4.267 8.533-4.267 12.8 0 0 0 0 0 0 0 4.267 0 8.533 0 12.8s0 8.533 0 12.8c0 0 0 0 0 0 0 4.267 4.267 8.533 8.533 8.533l192 192c4.267 4.267 12.8 8.533 21.333 8.533s12.8-4.267 21.333-8.533z" />
<glyph unicode="&#xe908;" glyph-name="professional-network-linkedin" d="M106.667 597.333h170.667c11.782 0 21.333-9.551 21.333-21.333v-554.667c0-11.782-9.551-21.333-21.333-21.333h-170.667c-11.782 0-21.333 9.551-21.333 21.333v554.667c0 11.782 9.551 21.333 21.333 21.333zM296.96 789.333c0-58.91-47.374-106.667-105.813-106.667s-105.813 47.756-105.813 106.667c0 58.91 47.374 106.667 105.813 106.667s105.813-47.756 105.813-106.667zM789.333 0h128c11.782 0 21.333 9.551 21.333 21.333v0 358.4c0 160.853-90.88 238.933-218.027 238.933-1.958 0.076-4.256 0.12-6.565 0.12-50.44 0-96.024-20.79-128.651-54.268l-0.037-0.038c-3.225-3.712-7.954-6.045-13.227-6.045-9.661 0-17.493 7.832-17.493 17.493 0 0.025 0 0.050 0 0.075v-0.004c0 11.782-9.551 21.333-21.333 21.333v0h-128c-11.782 0-21.333-9.551-21.333-21.333v0-554.667c0-11.782 9.551-21.333 21.333-21.333v0h128c11.782 0 21.333 9.551 21.333 21.333v0 320c0 58.91 47.756 106.667 106.667 106.667s106.667-47.756 106.667-106.667v0-320c0-11.782 9.551-21.333 21.333-21.333v0z" />
<glyph unicode="&#xe909;" glyph-name="arrow-left-1" d="M693.333-64c-8.533 0-16.597 3.328-22.613 9.387l-457.387 457.387c-12.075 12.075-18.731 28.117-18.731 45.184s6.613 33.152 18.688 45.227l457.429 457.429c6.016 6.059 14.080 9.387 22.613 9.387s16.597-3.328 22.613-9.387c6.059-6.016 9.387-14.080 9.387-22.613s-3.328-16.597-9.387-22.613l-457.387-457.387 457.387-457.387c6.059-6.059 9.387-14.080 9.387-22.613s-3.328-16.597-9.387-22.613-14.080-9.387-22.613-9.387z" />
<glyph unicode="&#xe90a;" glyph-name="arrow-right-1" d="M234.624-64c-8.533 0-16.597 3.328-22.613 9.387-12.459 12.459-12.459 32.768 0 45.269l457.387 457.344-457.387 457.387c-6.059 6.016-9.387 14.080-9.387 22.613s3.328 16.597 9.387 22.613c6.016 6.059 14.080 9.387 22.613 9.387s16.597-3.328 22.613-9.387l457.387-457.387c24.917-24.917 24.96-65.493 0.043-90.411l-457.429-457.429c-6.016-6.059-14.080-9.387-22.613-9.387z" />
<glyph unicode="&#xe90b;" glyph-name="check-1" d="M270.805-64.128c-25.643 0-50.432 7.808-71.68 22.571-11.136 7.723-20.864 17.195-29.013 28.075l-163.712 218.283c-5.12 6.827-7.296 15.275-6.101 23.723 1.237 8.448 5.675 15.957 12.501 21.077 5.589 4.181 12.203 6.4 19.2 6.4 10.027 0 19.584-4.779 25.6-12.8l163.797-218.368c4.011-5.419 8.832-10.069 14.293-13.867 10.453-7.253 22.613-11.093 35.243-11.093 3.669 0 7.381 0.341 11.051 0.981 16.256 2.901 30.379 11.989 39.808 25.557l644.011 919.936c5.931 8.533 15.744 13.653 26.197 13.653 6.571 0 12.928-2.005 18.304-5.76 7.040-4.907 11.691-12.245 13.184-20.651s-0.384-16.896-5.291-23.936l-643.925-919.851c-19.157-27.52-47.957-45.995-81.067-51.925-7.381-1.323-14.933-2.005-22.4-2.005z" />
<glyph unicode="&#xe90c;" glyph-name="check-checkbox" d="M998.4 947.2c-29.867 21.333-68.267 12.8-89.6-12.8l-597.333-836.267-200.533 200.533c-25.6 25.6-64 25.6-89.6 0s-25.6-64 0-89.6v0l251.733-251.733c25.6-25.6 68.267-25.6 93.867 0 0 0 4.267 4.267 4.267 4.267l644.267 896c17.067 29.867 8.533 68.267-17.067 89.6z" />
<glyph unicode="&#xe90d;" glyph-name="style-three-pin-information" d="M512 960c-247.040 0-448-181.845-448-405.333 0-245.291 311.467-524.203 407.040-603.819 11.016-9.234 25.344-14.842 40.981-14.842s29.965 5.608 41.081 14.923l-0.1-0.081c95.531 79.701 406.997 358.656 406.997 603.819 0 223.488-200.96 405.333-448 405.333zM512 832c35.346 0 64-28.654 64-64s-28.654-64-64-64c-35.346 0-64 28.654-64 64v0c0 35.346 28.654 64 64 64v0zM672 309.333c0-23.564-19.103-42.667-42.667-42.667v0h-170.667c-23.564 0-42.667 19.103-42.667 42.667s19.103 42.667 42.667 42.667v0h21.333c11.782 0 21.333 9.551 21.333 21.333v0 170.667c0 11.782-9.551 21.333-21.333 21.333v0h-21.333c-23.564 0-42.667 19.103-42.667 42.667s19.103 42.667 42.667 42.667v0h42.667c47.128 0 85.333-38.205 85.333-85.333v0-192c0-11.782 9.551-21.333 21.333-21.333v0h21.333c23.564 0 42.667-19.103 42.667-42.667v0z" />
<glyph unicode="&#xe90e;" glyph-name="close-quote" d="M791.851 792.235c-0.892 0.014-1.945 0.021-2.999 0.021-116.454 0-210.859-94.405-210.859-210.859s94.405-210.859 210.859-210.859c1.055 0 2.108 0.008 3.159 0.023l-0.159-0.002c16.925 0.062 33.311 2.253 48.94 6.318l-1.367-0.302c0.764 0.196 1.641 0.308 2.544 0.308 5.891 0 10.667-4.776 10.667-10.667 0-1.967-0.533-3.81-1.462-5.393l0.027 0.050c-50.001-89.114-143.26-148.716-250.573-150.312l-0.222-0.003c-29.455 0-53.333-23.878-53.333-53.333s23.878-53.333 53.333-53.333v0c223.63 6.629 402.392 189.499 402.392 414.122 0 3.661-0.047 7.31-0.142 10.948l0.011-0.537v52.992c-0.145 116.372-94.444 210.67-210.802 210.816h-0.014zM266.069 792.235c-115.157-1.69-207.859-95.438-207.859-210.837s92.702-209.147 207.7-210.835l0.159-0.002c16.924 0.058 33.31 2.249 48.938 6.318l-1.365-0.302c0.779 0.203 1.672 0.32 2.593 0.32 5.891 0 10.667-4.776 10.667-10.667 0-1.972-0.535-3.82-1.469-5.405l0.027 0.050c-50.001-89.114-143.26-148.716-250.573-150.312l-0.222-0.003c-29.455 0-53.333-23.878-53.333-53.333s23.878-53.333 53.333-53.333v0c223.634 6.652 402.391 189.533 402.391 414.164 0 3.646-0.047 7.282-0.141 10.905l0.011-0.536v52.992c-0.146 116.387-94.469 210.695-210.847 210.816h-0.011z" />
<glyph unicode="&#xe90f;" glyph-name="arrow-up-1" d="M32 194.603c-8.533 0-16.597 3.328-22.613 9.387-12.459 12.459-12.459 32.768 0 45.269l457.387 457.301c12.075 12.117 28.117 18.773 45.184 18.773 17.109 0 33.152-6.656 45.227-18.688l457.429-457.387c12.459-12.459 12.459-32.768 0-45.269-6.059-6.059-14.080-9.387-22.613-9.387s-16.597 3.328-22.613 9.387l-457.387 457.344-457.387-457.344c-6.016-6.059-14.080-9.387-22.613-9.387z" />
<glyph unicode="&#xe910;" glyph-name="arrow-down-1" d="M512 149.376c-17.067 0-33.109 6.656-45.184 18.688l-457.429 457.387c-6.059 6.059-9.387 14.080-9.387 22.656 0 8.533 3.328 16.597 9.387 22.613 6.059 6.059 14.080 9.387 22.613 9.387s16.597-3.328 22.613-9.387l457.387-457.344 457.387 457.344c6.059 6.059 14.080 9.387 22.613 9.387s16.597-3.328 22.613-9.387c6.059-6.059 9.387-14.080 9.387-22.613s-3.328-16.597-9.387-22.613l-457.387-457.387c-12.032-12.075-28.117-18.731-45.227-18.731z" />
<glyph unicode="&#xe911;" glyph-name="button-unchecked" d="M512-64c-281.6 0-512 230.4-512 512s230.4 512 512 512 512-230.4 512-512-230.4-512-512-512zM512 896c-247.467 0-448-200.533-448-448s200.533-448 448-448 448 200.533 448 448-200.533 448-448 448z" />
<glyph unicode="&#xe912;" glyph-name="button-checked" d="M512-64c-281.6 0-512 230.4-512 512s230.4 512 512 512 512-230.4 512-512-230.4-512-512-512zM512 896c-247.467 0-448-200.533-448-448s200.533-448 448-448 448 200.533 448 448-200.533 448-448 448zM512 226.133c-123.733 0-221.867 102.4-221.867 221.867s98.133 226.133 221.867 226.133 221.867-102.4 221.867-221.867-98.133-226.133-221.867-226.133z" />
<glyph unicode="&#xe913;" glyph-name="alert-triangle" d="M170.667-25.6l763.733 396.8c42.667 21.333 59.733 72.533 34.133 115.2-8.533 17.067-21.333 29.867-34.133 34.133l-763.733 401.067c-42.667 21.333-93.867 8.533-115.2-34.133-4.267-12.8-8.533-25.6-8.533-42.667v-797.867c0-46.933 38.4-85.333 85.333-85.333 12.8 0 25.6 4.267 38.4 12.8z" />
<glyph unicode="&#xe914;" glyph-name="content" d="M480 448h-32v480h-416v-416h384v-32h-400c-9.6 0-16 6.4-16 16v448c0 9.6 6.4 16 16 16h448c9.6 0 16-6.4 16-16v-496zM1008 480h-496v32h480v416h-416v-384h-32v400c0 9.6 6.4 16 16 16h448c9.6 0 16-6.4 16-16v-448c0-9.6-6.4-16-16-16zM464-64h-448c-9.6 0-16 6.4-16 16v448c0 9.6 6.4 16 16 16h496v-32h-480v-416h416v384h32v-400c0-9.6-6.4-16-16-16zM1008-64h-448c-9.6 0-16 6.4-16 16v496h32v-480h416v416h-384v32h400c9.6 0 16-6.4 16-16v-448c0-9.6-6.4-16-16-16zM368 736h-48v32h32v64h-224v-64h32v-32h-48c-9.6 0-16 6.4-16 16v96c0 9.6 6.4 16 16 16h256c9.6 0 16-6.4 16-16v-96c0-9.6-6.4-16-16-16zM288 592h-32v192c0 9.6 6.4 16 16 16h48v-32h-32v-176zM224 592h-32v176h-32v32h48c9.6 0 16-6.4 16-16v-192zM176 608h128v-32h-128v32zM852.8 484.8l-180.8 180.8-100.8-100.8-22.4 22.4 112 112c6.4 6.4 16 6.4 22.4 0l192-192-22.4-22.4zM763.2 596.8l-22.4 22.4 160 160c6.4 6.4 16 6.4 22.4 0l96-96-22.4-22.4-84.8 84.8-148.8-148.8zM752 736c-35.2 0-64 28.8-64 64s28.8 64 64 64 64-28.8 64-64-28.8-64-64-64zM752 832c-17.6 0-32-14.4-32-32s14.4-32 32-32 32 14.4 32 32-14.4 32-32 32zM96 320h288v-32h-288v32zM96 256h288v-32h-288v32zM96 192h288v-32h-288v32zM96 128h288v-32h-288v32zM96 64h160v-32h-160v32zM788.587 203.225l208.17 208.17 22.627-22.627-208.17-208.17-22.627 22.627zM656 32c-4.8 0-8 1.6-11.2 4.8-4.8 4.8-6.4 11.2-3.2 17.6l64 144c0 1.6 1.6 3.2 3.2 4.8l208 208 22.4-22.4-206.4-206.4-44.8-102.4 104 46.4 206.4 206.4 22.4-22.4-208-208c-1.6-1.6-3.2-3.2-4.8-3.2l-144-64c-3.2-3.2-6.4-3.2-8-3.2zM709.074 180.282l22.627 22.627 80.327-80.327-22.627-22.627-80.327 80.327zM656 64h272v-32h-272v32z" />
<glyph unicode="&#xe915;" glyph-name="brain" horiz-adv-x="960" d="M320 416c-3.2 0-4.8 0-8 1.6-4.8 3.2-8 6.4-8 12.8-1.6 16-12.8 33.6-32 33.6s-30.4-17.6-32-33.6c0-4.8-3.2-9.6-8-12.8s-9.6-3.2-14.4 0l-96 48c-4.8 1.6-8 6.4-8 11.2-1.6 4.8 0 9.6 3.2 12.8 4.8 6.4 17.6 25.6 1.6 43.2-17.6 17.6-36.8 3.2-43.2-1.6-4.8-3.2-9.6-3.2-14.4-3.2-4.8 1.6-8 4.8-11.2 8l-48 96c-1.6 4.8-1.6 9.6 0 14.4 3.2 6.4 8 9.6 12.8 9.6 16 1.6 33.6 12.8 33.6 32s-17.6 30.4-33.6 32c-4.8 0-8 3.2-11.2 6.4s-3.2 8-3.2 12.8c8 36.8 35.2 76.8 51.2 102.4 1.6 3.2 6.4 4.8 11.2 6.4 4.8 0 9.6 0 12.8-3.2 4.8-4.8 24-19.2 41.6-1.6s3.2 36.8-1.6 43.2c-3.2 3.2-3.2 8-3.2 12.8 1.6 4.8 4.8 8 8 11.2l96 48c4.8 1.6 9.6 1.6 14.4 0 6.4-3.2 9.6-8 9.6-12.8 1.6-16 12.8-33.6 32-33.6s30.4 17.6 32 33.6c0 4.8 3.2 9.6 8 12.8s9.6 3.2 14.4 0l96-48c4.8-1.6 8-6.4 8-11.2 1.6-4.8 0-9.6-3.2-12.8-4.8-6.4-17.6-25.6-1.6-43.2 17.6-17.6 36.8-3.2 43.2 1.6 4.8 3.2 9.6 3.2 14.4 3.2 4.8-1.6 8-4.8 11.2-8l48-96c1.6-4.8 1.6-9.6 0-14.4-3.2-4.8-6.4-8-12.8-8-16-1.6-33.6-12.8-33.6-32s17.6-30.4 33.6-32c4.8 0 9.6-3.2 12.8-8s3.2-9.6 0-14.4l-48-96c-1.6-4.8-6.4-8-11.2-8-4.8-1.6-9.6 0-12.8 3.2-6.4 4.8-25.6 17.6-43.2 1.6-17.6-17.6-3.2-36.8 1.6-43.2 3.2-3.2 4.8-8 3.2-12.8s-4.8-8-8-11.2l-96-48c-3.2-4.8-4.8-4.8-8-4.8zM272 496c25.6 0 48-16 59.2-41.6l62.4 32c-11.2 24-8 49.6 11.2 68.8s44.8 22.4 68.8 11.2l32 62.4c-25.6 11.2-41.6 33.6-41.6 59.2s16 48 41.6 59.2l-32 62.4c-24-11.2-49.6-8-68.8 11.2s-22.4 44.8-11.2 68.8l-62.4 32c-11.2-25.6-33.6-41.6-59.2-41.6s-48 16-59.2 41.6l-62.4-32c11.2-24 6.4-49.6-11.2-68.8-19.2-19.2-46.4-22.4-70.4-11.2-11.2-17.6-25.6-40-32-62.4 25.6-9.6 43.2-32 43.2-59.2 0-25.6-16-48-41.6-59.2l32-62.4c24 11.2 49.6 6.4 68.8-11.2 19.2-19.2 22.4-44.8 11.2-68.8l62.4-32c11.2 25.6 33.6 41.6 59.2 41.6zM272 560c-70.4 0-128 57.6-128 128s57.6 128 128 128 128-57.6 128-128-57.6-128-128-128zM272 784c-52.8 0-96-43.2-96-96s43.2-96 96-96 96 43.2 96 96-43.2 96-96 96zM304-64h-32v192c0 73.6-28.8 142.4-59.2 216l-1.6 1.6 28.8 12.8 1.6-1.6c32-76.8 62.4-148.8 62.4-228.8v-192zM480 214.4c-1.6 0-3.2 0-3.2 0-24 4.8-46.4 14.4-67.2 27.2-4.8 3.2-6.4 6.4-8 11.2 0 4.8 1.6 9.6 4.8 12.8 6.4 6.4 9.6 14.4 9.6 22.4 0 17.6-14.4 32-32 32-8 0-16-3.2-22.4-8-3.2-3.2-8-4.8-12.8-4.8s-9.6 3.2-11.2 8c-12.8 20.8-22.4 43.2-27.2 67.2l30.4 8c3.2-14.4 8-28.8 16-41.6 8 4.8 17.6 6.4 27.2 6.4 35.2 0 64-28.8 64-64 0-9.6-1.6-19.2-6.4-27.2 9.6-4.8 17.6-8 27.2-11.2 11.2 19.2 33.6 35.2 59.2 35.2s48-16 59.2-38.4c9.6 3.2 19.2 6.4 27.2 11.2-4.8 8-6.4 17.6-6.4 27.2 0 35.2 28.8 64 64 64 9.6 0 19.2-1.6 27.2-6.4 4.8 9.6 8 17.6 11.2 27.2-22.4 11.2-38.4 33.6-38.4 59.2s16 48 38.4 59.2c-3.2 9.6-6.4 19.2-11.2 27.2-8-4.8-17.6-6.4-27.2-6.4-35.2 0-64 28.8-64 64 0 9.6 1.6 19.2 6.4 27.2-12.8 6.4-27.2 11.2-43.2 16l8 30.4c24-4.8 46.4-14.4 67.2-27.2 4.8-3.2 6.4-6.4 8-11.2s-1.6-9.6-4.8-12.8c-6.4-6.4-9.6-14.4-9.6-22.4 0-17.6 14.4-32 32-32 8 0 16 3.2 22.4 8 3.2 3.2 8 4.8 12.8 4.8s9.6-3.2 11.2-8c12.8-20.8 22.4-43.2 27.2-67.2 1.6-4.8 0-9.6-3.2-12.8-1.6-1.6-6.4-4.8-9.6-4.8-16-1.6-28.8-16-28.8-32s12.8-30.4 28.8-32c4.8 0 8-3.2 11.2-6.4s3.2-8 3.2-12.8c-4.8-24-14.4-46.4-27.2-67.2-3.2-4.8-6.4-6.4-11.2-8s-9.6 1.6-12.8 4.8-16 9.6-24 9.6c-17.6 0-32-14.4-32-32 0-8 3.2-16 8-22.4 3.2-3.2 4.8-8 4.8-12.8s-3.2-9.6-8-11.2c-20.8-12.8-43.2-22.4-67.2-27.2-4.8-1.6-9.6 0-12.8 3.2-1.6 1.6-4.8 6.4-4.8 9.6-1.6 16-16 28.8-32 28.8s-30.4-12.8-32-28.8c0-4.8-3.2-8-6.4-11.2-3.2-1.6-6.4-1.6-9.6-1.6zM528 352c-44.8 0-80 35.2-80 80s35.2 80 80 80 80-35.2 80-80c0-44.8-35.2-80-80-80zM528 480c-27.2 0-48-20.8-48-48s20.8-48 48-48 48 20.8 48 48-20.8 48-48 48zM672-64h-32v192c0 9.6 6.4 16 16 16h96c44.8 0 80 35.2 80 80v144c0 9.6 6.4 16 16 16h80v12.8l-94.4 204.8c-1.6 1.6-1.6 4.8-1.6 6.4 0 176-144 320-320 320h-48v32h48c193.6 0 350.4-155.2 352-348.8l94.4-204.8c1.6-1.6 1.6-4.8 1.6-6.4v-32c0-9.6-6.4-16-16-16h-80v-128c0-62.4-49.6-112-112-112h-80v-176zM608 144h48v-32h-48v32z" />
<glyph unicode="&#xe916;" glyph-name="effective" horiz-adv-x="768" d="M384-64c-132.8 0-240 107.2-240 240 0 92.8 49.6 171.2 152 236.8l160 96c92.8 60.8 136 128 136 209.6 0 115.2-92.8 208-208 208s-208-92.8-208-208c0-83.2 43.2-148.8 136-211.2l-17.6-27.2c-100.8 68.8-150.4 147.2-150.4 240 0 132.8 107.2 240 240 240s240-107.2 240-240c0-92.8-49.6-171.2-152-236.8l-160-96c-92.8-60.8-136-128-136-209.6 0-115.2 92.8-208 208-208s208 92.8 208 208c0 83.2-43.2 148.8-136 211.2l17.6 27.2c102.4-67.2 152-144 152-236.8-1.6-136-108.8-243.2-241.6-243.2zM0-32h768v-32h-768v32zM0 960h768v-32h-768v32zM608 704c-22.4 0-35.2 11.2-43.2 20.8-8 8-11.2 11.2-20.8 11.2s-12.8-3.2-20.8-11.2c-8-9.6-20.8-20.8-43.2-20.8s-35.2 11.2-43.2 20.8c-8 8-11.2 11.2-20.8 11.2s-12.8-3.2-20.8-11.2c-8-9.6-20.8-20.8-43.2-20.8s-35.2 11.2-43.2 20.8c-8 8-11.2 11.2-20.8 11.2s-12.8-3.2-20.8-11.2c-8-9.6-20.8-20.8-43.2-20.8s-35.2 11.2-43.2 20.8c-8 8-11.2 11.2-20.8 11.2v32c22.4 0 35.2-11.2 43.2-20.8 8-8 11.2-11.2 20.8-11.2s12.8 3.2 20.8 11.2c8 8 20.8 20.8 43.2 20.8s35.2-11.2 43.2-20.8c8-8 11.2-11.2 20.8-11.2s12.8 3.2 20.8 11.2c8 8 20.8 20.8 43.2 20.8s35.2-11.2 43.2-20.8c8-8 11.2-11.2 20.8-11.2s12.8 3.2 20.8 11.2c8 8 20.8 20.8 43.2 20.8s35.2-11.2 43.2-20.8c8-8 11.2-11.2 20.8-11.2v-32zM608 128c-22.4 0-35.2 11.2-43.2 20.8-8 8-11.2 11.2-20.8 11.2s-12.8-3.2-20.8-11.2c-8-9.6-20.8-20.8-43.2-20.8s-35.2 11.2-43.2 20.8c-8 8-11.2 11.2-20.8 11.2s-12.8-3.2-20.8-11.2c-8-9.6-20.8-20.8-43.2-20.8s-35.2 11.2-43.2 20.8c-8 8-11.2 11.2-20.8 11.2s-12.8-3.2-20.8-11.2c-8-9.6-20.8-20.8-43.2-20.8s-35.2 11.2-43.2 20.8c-8 8-11.2 11.2-20.8 11.2v32c22.4 0 35.2-11.2 43.2-20.8 8-8 11.2-11.2 20.8-11.2s12.8 3.2 20.8 11.2c8 8 20.8 20.8 43.2 20.8s35.2-11.2 43.2-20.8c8-8 11.2-11.2 20.8-11.2s12.8 3.2 20.8 11.2c8 8 20.8 20.8 43.2 20.8s35.2-11.2 43.2-20.8c8-8 11.2-11.2 20.8-11.2s12.8 3.2 20.8 11.2c8 8 20.8 20.8 43.2 20.8s35.2-11.2 43.2-20.8c8-8 11.2-11.2 20.8-11.2v-32zM368 384h32v-32h-32v32zM368 320h32v-32h-32v32zM368 256h32v-32h-32v32zM304 320h32v-32h-32v32zM304 256h32v-32h-32v32zM240 256h32v-32h-32v32zM432 320h32v-32h-32v32zM432 256h32v-32h-32v32zM496 256h32v-32h-32v32zM368 544h32v-32h-32v32zM368 608h32v-32h-32v32zM368 672h32v-32h-32v32zM304 608h32v-32h-32v32zM304 672h32v-32h-32v32zM240 672h32v-32h-32v32zM432 608h32v-32h-32v32zM432 672h32v-32h-32v32zM496 672h32v-32h-32v32zM224 432h-224v336h32v-304h192zM171.2 372.8l-22.4 22.4 52.8 52.8-52.8 52.8 22.4 22.4 64-64c6.4-6.4 6.4-16 0-22.4l-64-64zM768 128h-32v304h-192v32h224zM596.8 372.8l-64 64c-6.4 6.4-6.4 16 0 22.4l64 64 22.4-22.4-52.8-52.8 52.8-52.8-22.4-22.4zM736 32h32v-32h-32v32zM736 96h32v-32h-32v32zM0 832h32v-32h-32v32zM0 896h32v-32h-32v32z" />
<glyph unicode="&#xe917;" glyph-name="mobile" d="M576 160h-512c-35.2 0-64 28.8-64 64v608c0 35.2 28.8 64 64 64h768c35.2 0 64-28.8 64-64v-96h-32v96c0 17.6-14.4 32-32 32h-768c-17.6 0-32-14.4-32-32v-608c0-17.6 14.4-32 32-32h512v-32zM512 176h32v-160h-32v160zM352 176h32v-160h-32v160zM320 32h256v-32h-256v32zM16 320h560v-32h-560v32zM432 256h32v-32h-32v32zM976 0h-320c-27.2 0-48 20.8-48 48v400h32v-400c0-9.6 6.4-16 16-16h320c9.6 0 16 6.4 16 16v608c0 9.6-6.4 16-16 16h-320c-9.6 0-16-6.4-16-16v-48h-32v48c0 27.2 20.8 48 48 48h320c27.2 0 48-20.8 48-48v-608c0-27.2-20.8-48-48-48zM784 96h64v-32h-64v32zM512 512h352v-32h-352v32zM400 576h304v-32h-304v32zM448 496c-4.8 0-8 1.6-11.2 4.8l-59.2 59.2 59.2 59.2c6.4 6.4 16 6.4 22.4 0s6.4-16 0-22.4l-36.8-36.8 36.8-36.8c6.4-6.4 6.4-16 0-22.4-3.2-3.2-6.4-4.8-11.2-4.8zM864 480c-4.8 0-8 1.6-11.2 4.8l-48 48c-6.4 6.4-6.4 16 0 22.4s16 6.4 22.4 0l48-48c6.4-6.4 6.4-16 0-22.4-3.2-3.2-6.4-4.8-11.2-4.8zM816 432c-4.8 0-8 1.6-11.2 4.8-6.4 6.4-6.4 16 0 22.4l48 48c6.4 6.4 16 6.4 22.4 0s6.4-16 0-22.4l-48-48c-3.2-3.2-6.4-4.8-11.2-4.8zM624 160h384v-32h-384v32zM96 352h-32v480h768v-32h-736zM128 704h32v-32h-32v32zM192 704h32v-32h-32v32zM256 704h32v-32h-32v32zM128 640h32v-32h-32v32zM192 640h32v-32h-32v32zM256 640h32v-32h-32v32zM128 576h32v-32h-32v32zM192 576h32v-32h-32v32zM320 704h32v-32h-32v32zM128 768h32v-32h-32v32zM192 768h32v-32h-32v32zM256 768h32v-32h-32v32zM320 768h32v-32h-32v32zM384 704h32v-32h-32v32zM384 768h32v-32h-32v32zM864 288h32v-32h-32v32zM928 288h32v-32h-32v32zM864 352h32v-32h-32v32zM928 352h32v-32h-32v32zM800 352h32v-32h-32v32zM672 288h32v-32h-32v32zM736 288h32v-32h-32v32zM800 288h32v-32h-32v32zM864 224h32v-32h-32v32zM928 224h32v-32h-32v32zM672 224h32v-32h-32v32zM736 224h32v-32h-32v32zM800 224h32v-32h-32v32z" />
<glyph unicode="&#xe918;" glyph-name="website" d="M1024-32h-224v32h192v896h-960v-896h192v-32h-224v960h1024zM16 800h992v-32h-992v32zM64 864h32v-32h-32v32zM128 864h32v-32h-32v32zM192 864h32v-32h-32v32zM256 912h32v-128h-32v128zM320 864h640v-32h-640v32zM960 32h-160v32h128v640h-832v-640h128v-32h-160v704h896zM704-32h-384c-35.2 0-64 28.8-64 64v288c0 35.2 28.8 64 64 64h384c35.2 0 64-28.8 64-64v-288c0-35.2-28.8-64-64-64zM320 352c-17.6 0-32-14.4-32-32v-288c0-17.6 14.4-32 32-32h384c17.6 0 32 14.4 32 32v288c0 17.6-14.4 32-32 32h-384zM608 368h-32v96c0 35.2-28.8 64-64 64s-64-28.8-64-64v-96h-32v96c0 54.4 41.6 96 96 96s96-41.6 96-96v-96zM688 368h-32v96c0 80-64 144-144 144s-144-64-144-144v-96h-32v96c0 97.6 78.4 176 176 176s176-78.4 176-176v-96zM320 64h384v-32h-384v32zM512 160c-35.2 0-64 28.8-64 64s28.8 64 64 64c35.2 0 64-28.8 64-64s-28.8-64-64-64zM512 256c-17.6 0-32-14.4-32-32s14.4-32 32-32c17.6 0 32 14.4 32 32s-14.4 32-32 32zM496 176h32v-48h-32v48z" />
<glyph unicode="&#xe919;" glyph-name="workforce" d="M96 224h-48c-25.6 0-48 28.8-48 64v41.6l120 68.8 16-27.2-104-60.8v-22.4c0-20.8 11.2-32 16-32h48v-32zM336 302.4l-120 67.2 16 28.8 104-60.8 121.6 60.8 12.8-28.8zM688 302.4l-134.4 67.2 12.8 28.8 121.6-60.8 104 60.8 16-28.8zM976 224h-48v32h48c4.8 0 16 11.2 16 32v22.4l-104 59.2 16 27.2 120-68.8v-40c0-35.2-22.4-64-48-64zM176 352c-54.4 0-96 51.2-96 120 0 48 11.2 104 96 104s96-56 96-104c0-68.8-41.6-120-96-120zM176 544c-48 0-64-17.6-64-72 0-43.2 22.4-88 64-88s64 44.8 64 88c0 54.4-16 72-64 72zM512 352c-54.4 0-96 51.2-96 120 0 48 11.2 104 96 104s96-56 96-104c0-68.8-41.6-120-96-120zM512 544c-48 0-64-17.6-64-72 0-43.2 22.4-88 64-88s64 44.8 64 88c0 54.4-16 72-64 72zM848 352c-54.4 0-96 51.2-96 120 0 48 11.2 104 96 104s96-56 96-104c0-68.8-41.6-120-96-120zM848 544c-48 0-64-17.6-64-72 0-43.2 22.4-88 64-88s64 44.8 64 88c0 54.4-16 72-64 72zM320 320h32v-48h-32v48zM672 320h32v-48h-32v48zM512 736c-54.4 0-96 51.2-96 120 0 48 11.2 104 96 104s96-56 96-104c0-68.8-41.6-120-96-120zM512 928c-48 0-64-17.6-64-72 0-43.2 22.4-88 64-88s64 44.8 64 88c0 54.4-16 72-64 72zM640 608h-256c-27.2 0-48 28.8-48 64v41.6l120 68.8 16-27.2-104-60.8v-22.4c0-20.8 11.2-32 16-32h256c4.8 0 16 11.2 16 32v22.4l-104 59.2 16 27.2 120-68.8v-40c0-35.2-20.8-64-48-64zM160 880h32v-240h-32v240zM244.8 788.8l-68.8 68.8-68.8-68.8-22.4 22.4 80 80c6.4 6.4 16 6.4 22.4 0l80-80-22.4-22.4zM832 880h32v-240h-32v240zM916.8 788.8l-68.8 68.8-68.8-68.8-22.4 22.4 80 80c6.4 6.4 16 6.4 22.4 0l80-80-22.4-22.4zM976-64h-928c-25.6 0-48 28.8-48 64v41.6l120 68.8 16-27.2-104-60.8v-22.4c0-20.8 11.2-32 16-32h928c4.8 0 16 11.2 16 32v22.4l-104 59.2 16 27.2 120-68.8v-40c0-35.2-22.4-64-48-64zM688 14.4l-134.4 67.2 12.8 28.8 121.6-60.8 104 60.8 16-28.8zM336 14.4l-120 67.2 16 28.8 104-60.8 121.6 60.8 12.8-28.8zM176 64c-54.4 0-96 51.2-96 120 0 48 11.2 104 96 104s96-56 96-104c0-68.8-41.6-120-96-120zM176 256c-48 0-64-17.6-64-72 0-43.2 22.4-88 64-88s64 44.8 64 88c0 54.4-16 72-64 72zM512 64c-54.4 0-96 51.2-96 120 0 48 11.2 104 96 104s96-56 96-104c0-68.8-41.6-120-96-120zM512 256c-48 0-64-17.6-64-72 0-43.2 22.4-88 64-88s64 44.8 64 88c0 54.4-16 72-64 72zM848 64c-54.4 0-96 51.2-96 120 0 48 11.2 104 96 104s96-56 96-104c0-68.8-41.6-120-96-120zM848 256c-48 0-64-17.6-64-72 0-43.2 22.4-88 64-88s64 44.8 64 88c0 54.4-16 72-64 72zM320 32h32v-48h-32v48zM672 32h32v-48h-32v48z" />
<glyph unicode="&#xe91a;" glyph-name="arrow-right" d="M544-32c-8.533 0-16.597 3.328-22.613 9.387-12.459 12.459-12.459 32.768 0 45.269l393.387 393.387h-882.773c-17.664-0.043-32 14.293-32 31.957s14.336 32 32 32h882.731l-393.387 393.387c-6.016 6.016-9.344 14.080-9.344 22.613s3.328 16.597 9.387 22.613c6.016 6.059 14.080 9.387 22.613 9.387s16.597-3.328 22.613-9.387l448-448c2.987-2.987 5.333-6.485 6.955-10.453 0.128-0.341 0.299-0.725 0.427-1.109 1.323-3.456 2.005-7.253 2.005-11.051 0-3.712-0.683-7.424-2.005-11.008-0.085-0.256-0.171-0.469-0.256-0.683-1.792-4.437-4.181-7.979-7.168-10.965l-447.957-447.957c-6.016-6.059-14.080-9.387-22.613-9.387z" />
<glyph unicode="&#xe91b;" glyph-name="messages" d="M31.957-64c-8.576 0-16.597 3.328-22.656 9.387-9.557 9.557-12.075 24.149-6.272 36.352l124.203 260.821c-41.557 72.619-63.403 154.965-63.317 238.763 0.384 263.936 215.424 478.677 479.36 478.677l1.451-16v16c89.643 0 177.28-25.045 253.44-72.363 108.715-67.584 184.661-173.653 213.803-298.667s7.979-253.696-59.605-362.453c-88.149-141.781-240.811-226.432-408.363-226.432 0 0 0 0 0 0-83.285 0-165.205 21.803-237.483 63.189l-260.821-124.203c-4.309-2.005-9.045-3.072-13.739-3.072zM543.275 896c-228.693 0-415.019-186.069-415.36-414.763-0.128-77.867 21.589-153.984 62.72-220.075 5.803-9.344 6.443-20.779 1.707-30.677l-92.757-194.859 194.859 92.8c4.224 2.048 9.003 3.115 13.739 3.115 5.973 0 11.819-1.664 16.896-4.864 65.877-40.96 141.568-62.592 218.923-62.592 145.28 0 277.589 73.344 354.005 196.224 121.088 194.816 61.141 451.84-133.632 572.928-66.005 41.045-141.952 62.72-219.648 62.72-0.171 0.043-1.451 0.043-1.451 0.043zM647.253 341.12c-12.459 0-23.851 7.296-29.056 18.603-7.381 16.043-0.341 35.072 15.659 42.453 29.355 13.483 48.64 41.899 50.389 74.155 0 5.419-0.683 12.245-2.219 19.541-11.392-9.941-26.155-15.872-41.813-15.872-35.285 0-64 28.715-64 64 0 31.403 22.357 57.728 53.376 62.933 2.731 0.725 5.333 1.067 7.936 1.067 0.256 0 0.811-0.043 1.323-0.043 0.427 0.043 0.896 0.043 1.365 0.043 1.664 0 3.243-0.171 4.821-0.384 67.968-5.291 103.168-70.912 103.168-133.035-3.072-57.387-36.608-107.051-87.552-130.517-4.267-1.963-8.789-2.944-13.397-2.944zM423.253 341.12c-12.459 0-23.851 7.296-29.056 18.603-7.381 16.043-0.341 35.072 15.659 42.453 29.312 13.483 48.64 41.899 50.389 74.155 0 5.419-0.683 12.245-2.219 19.541-11.392-9.941-26.155-15.872-41.813-15.872-35.285 0-64 28.715-64 64 0 31.403 22.4 57.728 53.376 62.933 2.688 0.725 5.333 1.067 7.893 1.067 0.256 0 0.811-0.043 1.323-0.043 0.469 0.043 0.939 0.043 1.365 0.043 1.664 0 3.243-0.171 4.821-0.384 67.925-5.291 103.168-70.912 103.168-133.035-3.072-57.387-36.608-107.093-87.552-130.517-4.224-1.963-8.704-2.944-13.355-2.944z" />
<glyph unicode="&#xe91c;" glyph-name="accountsstorage" d="M1008-64h-992c-9.6 0-16 6.4-16 16v416c0 9.6 6.4 16 16 16h992c9.6 0 16-6.4 16-16v-416c0-9.6-6.4-16-16-16zM32-32h960v384h-960v-384zM992 363.2l-91.2 308.8h-20.8v32h43.2l100.8-331.2zM32 363.2l-32 9.6 100.8 331.2h43.2v-32h-20.8zM816 736h-32v192h-299.2l-96-64h-148.8v-128h-32v160h171.2l96 64h340.8zM848 624h-32v48h-608v-48h-32v80h672zM880 528h-32v32h-672v-32h-32v64h736zM912 416h-32v48h-736v-48h-32v80h800zM688 80h-352c-35.2 0-64 28.8-64 64v96h480v-96c0-35.2-28.8-64-64-64zM304 208v-64c0-17.6 14.4-32 32-32h352c17.6 0 32 14.4 32 32v64h-416zM176 176h32v-32h-32v32zM816 176h32v-32h-32v32zM368 176h288v-32h-288v32zM592 864h160v-32h-160v32zM272 800h480v-32h-480v32z" />
<glyph unicode="&#xe91d;" glyph-name="groupoffriends" horiz-adv-x="960" d="M176 320h32v-368h-32v368zM176 704h32v-32h-32v32zM80 288h32v-336h-32v336zM272 368h32v-416h-32v416zM192 800c-44.8 0-80 35.2-80 80s35.2 80 80 80 80-35.2 80-80-35.2-80-80-80zM192 928c-27.2 0-48-20.8-48-48s20.8-48 48-48 48 20.8 48 48-20.8 48-48 48zM96 448h160v-32h-160v32zM464 320h32v-368h-32v368zM464 704h32v-32h-32v32zM464 640h32v-32h-32v32zM560 368h32v-416h-32v416zM368 368h32v-416h-32v416zM480 800c-44.8 0-80 35.2-80 80s35.2 80 80 80 80-35.2 80-80-35.2-80-80-80zM480 928c-27.2 0-48-20.8-48-48s20.8-48 48-48 48 20.8 48 48-20.8 48-48 48zM368 448h224v-32h-224v32zM304 352h-208v32h192v240c0 35.2 28.8 64 64 64v-32c-17.6 0-32-14.4-32-32v-256c0-9.6-6.4-16-16-16zM752 320h32v-368h-32v368zM752 704h32v-32h-32v32zM848 288h32v-336h-32v336zM656 368h32v-416h-32v416zM768 800c-44.8 0-80 35.2-80 80s35.2 80 80 80 80-35.2 80-80-35.2-80-80-80zM768 928c-27.2 0-48-20.8-48-48s20.8-48 48-48 48 20.8 48 48-20.8 48-48 48zM704 448h160v-32h-160v32zM944 320h-80c-9.6 0-16 6.4-16 16v288h32v-272h48v336c0 27.2-20.8 48-48 48h-800c-27.2 0-48-20.8-48-48v-336h48v272h32v-288c0-9.6-6.4-16-16-16h-80c-9.6 0-16 6.4-16 16v352c0 44.8 35.2 80 80 80h800c44.8 0 80-35.2 80-80v-352c0-9.6-6.4-16-16-16zM864 352h-208c-9.6 0-16 6.4-16 16v256c0 17.6-14.4 32-32 32v32c35.2 0 64-28.8 64-64v-240h192v-32zM592 352h-224c-9.6 0-16 6.4-16 16v192c0 17.6-14.4 32-32 32h-16v32h16c35.2 0 64-28.8 64-64v-176h192v176c0 35.2 28.8 64 64 64h16v-32h-16c-17.6 0-32-14.4-32-32v-192c0-9.6-6.4-16-16-16zM0-32h960v-32h-960v32z" />
<glyph unicode="&#xe91e;" glyph-name="businessdialog" d="M880-64h-672c-27.2 0-48 20.8-48 48v224c0 27.2 20.8 48 48 48h672c27.2 0 48-20.8 48-48v-48h80c6.4 0 12.8-3.2 14.4-9.6 3.2-6.4 1.6-12.8-3.2-17.6l-91.2-91.2v-57.6c0-27.2-20.8-48-48-48zM208 224c-9.6 0-16-6.4-16-16v-224c0-9.6 6.4-16 16-16h672c9.6 0 16 6.4 16 16v64c0 4.8 1.6 8 4.8 11.2l68.8 68.8h-57.6c-9.6 0-16 6.4-16 16v64c0 9.6-6.4 16-16 16h-672zM528 112h32v-32h-32v32zM592 112h32v-32h-32v32zM464 112h32v-32h-32v32zM880 640h-672c-27.2 0-48 20.8-48 48v224c0 27.2 20.8 48 48 48h672c27.2 0 48-20.8 48-48v-48h80c6.4 0 12.8-3.2 14.4-9.6 3.2-6.4 1.6-12.8-3.2-17.6l-91.2-91.2v-57.6c0-27.2-20.8-48-48-48zM208 928c-9.6 0-16-6.4-16-16v-224c0-9.6 6.4-16 16-16h672c9.6 0 16 6.4 16 16v64c0 4.8 1.6 8 4.8 11.2l68.8 68.8h-57.6c-9.6 0-16 6.4-16 16v64c0 9.6-6.4 16-16 16h-672zM256 848h160v-32h-160v32zM448 848h288v-32h-288v32zM256 784h320v-32h-320v32zM816 288h-672c-27.2 0-48 20.8-48 48v57.6l-91.2 91.2c-4.8 4.8-6.4 11.2-3.2 17.6s8 9.6 14.4 9.6h80v48c0 27.2 20.8 48 48 48h672c27.2 0 48-20.8 48-48v-224c0-27.2-20.8-48-48-48zM54.4 480l68.8-68.8c3.2-3.2 4.8-6.4 4.8-11.2v-64c0-9.6 6.4-16 16-16h672c9.6 0 16 6.4 16 16v224c0 9.6-6.4 16-16 16h-672c-9.6 0-16-6.4-16-16v-64c0-9.6-6.4-16-16-16h-57.6zM192 496h336v-32h-336v32zM192 432h176v-32h-176v32zM400 432h288v-32h-288v32z" />
<glyph unicode="&#xe91f;" glyph-name="essentialtools" d="M528 224h48v-32h-48v32zM528 160h48v-32h-48v32zM528 96h48v-32h-48v32zM528 32h48v-32h-48v32zM80 128h128v-32h-128v32zM80 256h128v-32h-128v32zM80 192h128v-32h-128v32zM304 128h128v-32h-128v32zM704-64h-192v1024h192v-1024zM544-32h128v960h-128v-960zM528 672h48v-32h-48v32zM528 736h48v-32h-48v32zM528 608h48v-32h-48v32zM528 544h48v-32h-48v32zM528 480h48v-32h-48v32zM528 416h48v-32h-48v32zM528 352h48v-32h-48v32zM528 288h48v-32h-48v32zM144-64c-4.8 0-9.6 3.2-12.8 6.4l-64 96c-1.6 3.2-3.2 6.4-3.2 9.6v896c0 9.6 6.4 16 16 16h128c9.6 0 16-6.4 16-16v-896c0-3.2-1.6-6.4-3.2-9.6l-64-96c-3.2-3.2-8-6.4-12.8-6.4zM96 52.8l48-72 48 72v875.2h-96v-875.2zM80 384h128v-32h-128v32zM80 320h128v-32h-128v32zM32 544h-32v304c0 9.6 6.4 16 16 16h192v-32h-176v-288zM352 848h32v-736h-32v736zM304 864h128v-32h-128v32zM368-64c-4.8 0-9.6 3.2-12.8 6.4l-64 96c-1.6 3.2-3.2 6.4-3.2 9.6v832c0 44.8 35.2 80 80 80s80-35.2 80-80v-832c0-3.2-1.6-6.4-3.2-9.6l-64-96c-3.2-3.2-8-6.4-12.8-6.4zM320 52.8l48-72 48 72v827.2c0 27.2-20.8 48-48 48s-48-20.8-48-48v-827.2zM640 832c0-17.673-14.327-32-32-32s-32 14.327-32 32c0 17.673 14.327 32 32 32s32-14.327 32-32zM976-64h-160c-27.2 0-48 20.8-48 48v288c0 27.2 20.8 48 48 48h160c27.2 0 48-20.8 48-48v-288c0-27.2-20.8-48-48-48zM816 288c-9.6 0-16-6.4-16-16v-288c0-9.6 6.4-16 16-16h160c9.6 0 16 6.4 16 16v288c0 9.6-6.4 16-16 16h-160zM880 256h32v-64h-32v64zM912 352h-32v64c0 35.2 28.8 64 64 64h16c17.6 0 32 14.4 32 32s-14.4 32-32 32h-128c-35.2 0-64 28.8-64 64s28.8 64 64 64h128c17.6 0 32 14.4 32 32s-14.4 32-32 32h-128c-35.2 0-64 28.8-64 64s28.8 64 64 64h16c17.6 0 32 14.4 32 32v64h32v-64c0-35.2-28.8-64-64-64h-16c-17.6 0-32-14.4-32-32s14.4-32 32-32h128c35.2 0 64-28.8 64-64s-28.8-64-64-64h-128c-17.6 0-32-14.4-32-32s14.4-32 32-32h128c35.2 0 64-28.8 64-64s-28.8-64-64-64h-16c-17.6 0-32-14.4-32-32v-64z" />
<glyph unicode="&#xe920;" glyph-name="invoicepaper" horiz-adv-x="800" d="M800-64h-800v1024h662.4l137.6-137.6v-886.4zM32-32h736v841.6l-118.4 118.4h-617.6v-960zM96 800h320v-32h-320v32zM448 160h256v-32h-256v32zM448 96h128v-32h-128v32zM784 800h-144v144h32v-112h112zM704 192h-608v512h608v-512zM128 224h544v448h-544v-448zM112 608h576v-32h-576v32zM288 688h32v-480h-32v480zM384 592h32v-384h-32v384zM480 592h32v-384h-32v384zM576 592h32v-384h-32v384zM304 512h384v-32h-384v32zM304 416h384v-32h-384v32zM304 320h384v-32h-384v32zM176 512h64v-32h-64v32zM176 416h64v-32h-64v32zM176 320h64v-32h-64v32zM96 864h32v-32h-32v32zM160 864h32v-32h-32v32zM224 864h32v-32h-32v32z" />
<glyph unicode="&#xe921;" glyph-name="paperworkroutine" horiz-adv-x="928" d="M352 224h-352v736h406.4l137.6-137.6v-118.4h-32v105.6l-118.4 118.4h-361.6v-672h320zM448 768h32v-64h-32v64zM352 288h-288v608h288v-32h-256v-544h256zM928-64h-544v736h406.4l137.6-137.6v-598.4zM416-32h480v553.6l-118.4 118.4h-361.6v-672zM768 704h-32v144c0 9.6-6.4 16-16 16h-144v32h144c27.2 0 48-20.8 48-48v-144zM352 0h-144c-27.2 0-48 20.8-48 48v144h32v-144c0-9.6 6.4-16 16-16h144v-32zM480 576h224v-32h-224v32zM480 512h224v-32h-224v32zM480 448h352v-32h-352v32zM480 384h352v-32h-352v32zM480 320h352v-32h-352v32zM480 256h352v-32h-352v32zM480 192h352v-32h-352v32zM480 128h352v-32h-352v32zM480 64h352v-32h-352v32zM528 800h-144v144h32v-112h112zM912 512h-144v144h32v-112h112z" />
<glyph unicode="&#xe922;" glyph-name="mobileandconnected" horiz-adv-x="960" d="M672-64h-32v160h-32v32h144c44.8 0 80 35.2 80 80v176h96v12.8l-96 208v3.2c0 176-144 320-320 320h-288v32h288c193.6 0 350.4-155.2 352-348.8l96-208v-51.2h-96v-144c0-62.4-49.6-112-112-112h-80v-160zM160 960h32v-32h-32v32zM480 160h-32v624c0 9.6-6.4 16-16 16h-384c-9.6 0-16-6.4-16-16v-48h-32v48c0 27.2 20.8 48 48 48h384c27.2 0 48-20.8 48-48v-624zM432-64h-384c-27.2 0-48 20.8-48 48v720h416v-32h-384v-688c0-9.6 6.4-16 16-16h384c9.6 0 16 6.4 16 16v112h-384v32h416v-144c0-27.2-20.8-48-48-48zM224 768h32v-32h-32v32zM160 768h32v-32h-32v32zM288 768h32v-32h-32v32zM160 48h160v-32h-160v32zM64 624h64v-64h-64v64zM160 624h64v-64h-64v64zM256 624h64v-64h-64v64zM352 624h64v-64h-64v64zM64 512h64v-64h-64v64zM160 512h64v-64h-64v64zM256 512h64v-64h-64v64zM352 512h64v-64h-64v64zM64 400h64v-64h-64v64zM160 400h64v-64h-64v64zM64 240h64v-64h-64v64zM160 240h64v-64h-64v64zM256 240h64v-64h-64v64zM352 240h64v-64h-64v64z" />
<glyph unicode="&#xe923;" glyph-name="personalfeatures" d="M512 416c-54.4 0-96 51.2-96 120 0 48 11.2 104 96 104s96-56 96-104c0-68.8-41.6-120-96-120zM512 608c-48 0-64-17.6-64-72 0-43.2 22.4-88 64-88s64 44.8 64 88c0 54.4-16 72-64 72zM640 288h-256c-25.6 0-48 28.8-48 64v41.6l120 68.8 16-27.2-104-60.8v-22.4c0-20.8 11.2-32 16-32h256c4.8 0 16 11.2 16 32v22.4l-104 59.2 16 27.2 120-68.8v-40c0-35.2-22.4-64-48-64zM512 96h-16v64h32v-32c169.6 8 304 148.8 304 320 0 124.8-70.4 235.2-182.4 289.6l14.4 28.8c123.2-59.2 200-180.8 200-318.4 0-193.6-158.4-352-352-352zM361.6 129.6c-124.8 59.2-201.6 180.8-201.6 318.4 0 193.6 158.4 352 352 352h16v-64h-32v32c-169.6-8-304-148.8-304-320 0-124.8 70.4-235.2 182.4-289.6l-12.8-28.8zM512-64c-281.6 0-512 230.4-512 512s230.4 512 512 512c281.6 0 512-230.4 512-512s-230.4-512-512-512zM512 928c-264 0-480-216-480-480s216-480 480-480 480 216 480 480c0 264-216 480-480 480zM512 16c-238.4 0-432 193.6-432 432s193.6 432 432 432 432-193.6 432-432c0-238.4-193.6-432-432-432zM512 848c-220.8 0-400-179.2-400-400s179.2-400 400-400 400 179.2 400 400c0 220.8-179.2 400-400 400zM16 464h80v-32h-80v32zM496 944h32v-80h-32v80zM788.992 148.363l22.627 22.627 64.488-64.488-22.627-22.627-64.488 64.488zM789.004 747.632l64.488 64.488 22.627-22.627-64.488-64.488-22.627 22.627z" />
<glyph unicode="&#xe924;" glyph-name="scheduleplanning" d="M512 64h-496c-9.6 0-16 6.4-16 16v704c0 9.6 6.4 16 16 16h992c9.6 0 16-6.4 16-16v-400h-32v384h-960v-672h480v-32zM432 576h-96v96h96v-96zM368 608h32v32h-32v-32zM560 576h-96v96h96v-96zM496 608h32v32h-32v-32zM688 576h-96v96h96v-96zM624 608h32v32h-32v-32zM816 576h-96v96h96v-96zM752 608h32v32h-32v-32zM944 576h-96v96h96v-96zM880 608h32v32h-32v-32zM432 448h-96v96h96v-96zM368 480h32v32h-32v-32zM304 448h-96v96h96v-96zM240 480h32v32h-32v-32zM176 448h-96v96h96v-96zM112 480h32v32h-32v-32zM560 448h-96v96h96v-96zM496 480h32v32h-32v-32zM688 448h-96v96h96v-96zM624 480h32v32h-32v-32zM816 448h-96v96h96v-96zM752 480h32v32h-32v-32zM944 448h-96v96h96v-96zM880 480h32v32h-32v-32zM432 320h-96v96h96v-96zM368 352h32v32h-32v-32zM304 320h-96v96h96v-96zM240 352h32v32h-32v-32zM176 320h-96v96h96v-96zM112 352h32v32h-32v-32zM560 320h-96v96h96v-96zM496 352h32v32h-32v-32zM432 192h-96v96h96v-96zM368 224h32v32h-32v-32zM304 192h-96v96h96v-96zM240 224h32v32h-32v-32zM176 192h-96v96h96v-96zM112 224h32v32h-32v-32zM1024 832h-32v96h-960v-96h-32v112c0 9.6 6.4 16 16 16h992c9.6 0 16-6.4 16-16v-112zM112 896h800v-32h-800v32zM240 640h32v-32h-32v32zM112 640h32v-32h-32v32zM752 96c-4.8 0-8 1.6-11.2 4.8l-64 64 22.4 22.4 52.8-52.8 116.8 116.8 22.4-22.4-128-128c-3.2-3.2-6.4-4.8-11.2-4.8zM784-64c-132.8 0-240 107.2-240 240s107.2 240 240 240 240-107.2 240-240-107.2-240-240-240zM784 384c-115.2 0-208-92.8-208-208s92.8-208 208-208 208 92.8 208 208-92.8 208-208 208z" />
<glyph unicode="&#xe925;" glyph-name="planningclipboard" horiz-adv-x="960" d="M720-64h-704c-9.6 0-16 6.4-16 16v928c0 9.6 6.4 16 16 16h176v-32h-160v-896h672v896h-160v32h176c9.6 0 16-6.4 16-16v-928c0-9.6-6.4-16-16-16zM544 768h-352c-9.6 0-16 6.4-16 16v160c0 9.6 6.4 16 16 16h352c9.6 0 16-6.4 16-16v-160c0-9.6-6.4-16-16-16zM208 800h320v128h-320v-128zM640 96h-544c-9.6 0-16 6.4-16 16v704c0 9.6 6.4 16 16 16h48v-32h-32v-672h512v672h-32v32h48c9.6 0 16-6.4 16-16v-704c0-9.6-6.4-16-16-16zM480 832h-224c-9.6 0-16 6.4-16 16v48h32v-32h192v32h32v-48c0-9.6-6.4-16-16-16zM400 704h160v-32h-160v32zM176 624h384v-32h-384v32zM176 560h384v-32h-384v32zM176 496h384v-32h-384v32zM176 432h384v-32h-384v32zM176 368h384v-32h-384v32zM176 304h224v-32h-224v32zM816 416h128v-32h-128v32zM816 96h128v-32h-128v32zM864 320h32v-32h-32v32zM864 256h32v-32h-32v32zM864 192h32v-32h-32v32zM880-64c-6.4 0-11.2 3.2-14.4 9.6l-64 128c-1.6 1.6-1.6 3.2-1.6 6.4v800c0 9.6 6.4 16 16 16h128c9.6 0 16-6.4 16-16v-800c0-3.2 0-4.8-1.6-6.4l-64-128c-3.2-6.4-8-9.6-14.4-9.6zM832 83.2l48-96 48 96v780.8h-96v-780.8zM928 880h-32v48h-32v-48h-32v64c0 9.6 6.4 16 16 16h64c9.6 0 16-6.4 16-16v-64zM16 32h704v-32h-704v32z" />
<glyph unicode="&#xe926;" glyph-name="subtract" d="M32 414.379c-17.664 0-32 14.336-32 32s14.336 32 32 32h960c17.664 0 32-14.336 32-32s-14.336-32-32-32h-960z" />
<glyph unicode="&#xe927;" glyph-name="sketchworkbook" d="M784-64h-736c-9.6 0-16 6.4-16 16v992c0 9.6 6.4 16 16 16h736c9.6 0 16-6.4 16-16v-992c0-9.6-6.4-16-16-16zM64-32h704v960h-704v-960zM160 944h32v-992h-32v992zM0 800h128v-32h-128v32zM0 736h128v-32h-128v32zM0 672h128v-32h-128v32zM0 608h128v-32h-128v32zM0 320h128v-32h-128v32zM0 256h128v-32h-128v32zM0 192h128v-32h-128v32zM0 128h128v-32h-128v32zM928 848h32v-768h-32v768zM832 848h32v-768h-32v768zM944 832h-96c-9.6 0-16 6.4-16 16v96c0 9.6 6.4 16 16 16h96c9.6 0 16-6.4 16-16v-96c0-9.6-6.4-16-16-16zM864 864h64v64h-64v-64zM896-64c-6.4 0-11.2 3.2-14.4 8l-48 80c-1.6 1.6-1.6 4.8-1.6 8v48c0 9.6 6.4 16 16 16h96c9.6 0 16-6.4 16-16v-48c0-3.2 0-6.4-1.6-8l-48-80c-3.2-4.8-8-8-14.4-8zM864 36.8l32-52.8 32 52.8v27.2h-64v-27.2zM848 352h96v-32h-96v32zM1024 496h-32v272h-144v32h160c9.6 0 16-6.4 16-16v-288zM528 464h32v-32h-32v32zM464 464h32v-32h-32v32zM400 464h32v-32h-32v32zM688 320h-416c-9.6 0-16 6.4-16 16v224c0 9.6 6.4 16 16 16h416c9.6 0 16-6.4 16-16v-224c0-9.6-6.4-16-16-16zM288 352h384v192h-384v-192zM256 864h448v-32h-448v32zM256 64h448v-32h-448v32z" />
<glyph unicode="&#xe928;" glyph-name="successtactics" d="M496 272h32v-288h-32v288zM784-16h-32v12.8l-94.4 268.8 30.4 11.2 96-272c0-1.6 1.6-3.2 1.6-4.8v-16zM272-16h-32v16c0 1.6 0 3.2 1.6 4.8l96 272 30.4-11.2-96-268.8v-12.8zM944 256h-864c-9.6 0-16 6.4-16 16v464h32v-448h832v448h32v-464c0-9.6-6.4-16-16-16zM1008 768h-992c-9.6 0-16 6.4-16 16v64c0 9.6 6.4 16 16 16h374.4l27.2 54.4c3.2 6.4 8 9.6 14.4 9.6h160c6.4 0 11.2-3.2 14.4-9.6l27.2-54.4h374.4c9.6 0 16-6.4 16-16v-64c0-9.6-6.4-16-16-16zM32 800h960v32h-368c-6.4 0-11.2 3.2-14.4 9.6l-27.2 54.4h-140.8l-27.2-54.4c-3.2-6.4-8-9.6-14.4-9.6h-368v-32zM464 864h96v-32h-96v32zM0 0h1024v-32h-1024v32zM448 640c0-17.673-14.327-32-32-32s-32 14.327-32 32c0 17.673 14.327 32 32 32s32-14.327 32-32zM608 416c0-17.673-14.327-32-32-32s-32 14.327-32 32c0 17.673 14.327 32 32 32s32-14.327 32-32zM256 448h-96v32h96c35.2 0 64 28.8 64 64v96c0 54.4 41.6 96 96 96s96-41.6 96-96v-32h-32v32c0 35.2-28.8 64-64 64s-64-28.8-64-64v-96c0-54.4-41.6-96-96-96zM576 320c-54.4 0-96 41.6-96 96v32h32v-32c0-35.2 28.8-64 64-64s64 28.8 64 64v96c0 54.4 41.6 96 96 96h128v-32h-128c-35.2 0-64-28.8-64-64v-96c0-54.4-41.6-96-96-96zM811.2 516.8l-22.4 22.4 52.8 52.8-52.8 52.8 22.4 22.4 64-64c6.4-6.4 6.4-16 0-22.4l-64-64zM480 576h32v-32h-32v32zM480 512h32v-32h-32v32zM128 736h32v-32h-32v32zM864 736h32v-32h-32v32zM864 352h32v-32h-32v32zM128 352h32v-32h-32v32z" />
<glyph unicode="&#xe929;" glyph-name="videomarketing" d="M36.8-64h-36.8v960c0 35.2 28.8 64 64 64h896c35.2 0 64-28.8 64-64v-672c0-35.2-28.8-64-64-64h-603.2l-320-224zM64 928c-17.6 0-32-14.4-32-32v-924.8l315.2 220.8h612.8c17.6 0 32 14.4 32 32v672c0 17.6-14.4 32-32 32h-896zM960 352h-896v544h896v-544zM96 384h832v480h-832v-480zM420.8 496h-36.8v256h36.8l238.4-128-238.4-128zM416 718.4v-187.2l174.4 92.8-174.4 94.4zM64 304h192v-32h-192v32zM352 304h416v-32h-416v32zM800 304h32v-32h-32v32zM864 304h32v-32h-32v32zM928 304h32v-32h-32v32zM288 320h32v-64h-32v64z" />
<glyph unicode="&#xe92a;" glyph-name="information-circle-3-2" d="M576 224c-52.949 0-96 43.051-96 96v160h-32c-17.664 0-32 14.336-32 32s14.336 32 32 32h32c35.285 0 64-28.715 64-64v-160c0-17.664 14.336-32 32-32h32c17.664 0 32-14.336 32-32s-14.336-32-32-32h-32zM544 656c0-26.51-21.49-48-48-48s-48 21.49-48 48c0 26.51 21.49 48 48 48s48-21.49 48-48zM512-64c-282.325 0-512 229.675-512 512s229.675 512 512 512c282.325 0 512-229.675 512-512s-229.675-512-512-512zM512 896c-247.040 0-448-200.96-448-448s200.96-448 448-448c247.040 0 448 200.96 448 448s-200.96 448-448 448z" />
<glyph unicode="&#xe92b;" d="M903.485-33.31h-782.971c-49.404 0-89.825 40.421-89.825 89.825v782.971c0 49.404 40.421 89.825 89.825 89.825h782.971c49.404 0 89.825-40.421 89.825-89.825v-782.971c0-49.404-40.421-89.825-89.825-89.825z" />
<glyph unicode="&#xe92c;" d="M428.912 624.655c0-14.222 0-79.345 0-79.345h-58.386v-97.31h58.386v-288.936h119.766v288.187h80.094c0 0 7.485 46.409 11.228 97.31-10.48 0-91.322 0-91.322 0s0 56.889 0 66.62c0 9.731 12.725 23.205 26.199 23.205 12.725 0 39.673 0 65.123 0 0 13.474 0 59.135 0 101.053-33.684 0-71.86 0-88.327 0-125.754 0.749-122.76-96.561-122.76-110.784z" />
<glyph unicode="&#xe92d;" d="M905.731-33.31h-782.971c-49.404 0-89.825 40.421-89.825 89.825v782.971c0 49.404 40.421 89.825 89.825 89.825h782.971c49.404 0 89.825-40.421 89.825-89.825v-782.971c0-49.404-40.421-89.825-89.825-89.825z" />
<glyph unicode="&#xe92e;" d="M756.023 511.626c-46.409 0-92.070 0-138.48 0 53.895-89.076-7.485-205.848-119.018-194.62-68.117 6.737-130.994 80.094-103.298 163.181 1.497 5.24 5.24 11.228 8.234 16.468s7.485 11.228 5.988 15.719c-44.912 0-136.982 0-136.982 0v-228.304c4.491-44.912 39.673-79.345 85.333-83.836h314.386c45.661 4.491 79.345 42.667 83.836 82.339 0 0 0 189.38 0 229.053z" />
<glyph unicode="&#xe92f;" d="M501.52 534.082c-18.713-2.246-28.444-5.988-38.175-11.977-20.959-12.725-41.17-36.678-44.912-68.865-7.485-64.374 39.673-108.538 94.316-108.538 43.415 0 96.561 30.69 95.813 95.813 0 59.135-47.158 101.053-107.041 93.567zM583.111 421.801c-8.234-32.936-44.164-56.889-81.591-51.649-35.93 5.24-74.105 49.404-53.146 99.556 7.485 17.965 25.45 38.924 61.38 41.17 44.912 2.994 86.082-36.678 73.357-89.076z" />
<glyph unicode="&#xe930;" d="M728.327 658.339c-12.725 12.725-34.433 24.702-57.637 26.947h-269.474v-122.76h-20.211v122.76h-12.725v-122.76h-20.211v122.012c-4.491-0.749-8.982-2.246-12.725-3.743v-118.269h-20.211v108.538c-6.737-3.743-11.977-8.234-16.468-12.725-26.947-26.947-29.193-72.608-26.947-130.994h149.708c5.988 1.497 13.474 8.982 18.713 12.725 20.211 14.971 46.409 23.205 72.608 23.205h0.749c26.199 0 52.398-8.234 72.608-23.205 5.24-3.743 12.725-11.228 18.713-12.725h149.708c1.497 59.135 0.749 104.047-26.199 130.994zM708.117 578.994c0-6.737-5.24-12.725-12.725-12.725h-51.649c-6.737 0-12.725 5.24-12.725 12.725v51.649c0 6.737 5.24 12.725 12.725 12.725h51.649c6.737 0 12.725-5.24 12.725-12.725v-51.649z" />
<glyph unicode="&#xe931;" d="M903.485-33.31h-782.971c-49.404 0-89.825 40.421-89.825 89.825v782.971c0 49.404 40.421 89.825 89.825 89.825h782.971c49.404 0 89.825-40.421 89.825-89.825v-782.971c0-49.404-40.421-89.825-89.825-89.825z" />
<glyph unicode="&#xe932;" d="M963.368 303.532c1.497 5.24 2.994 11.228 4.491 16.468-0.749-5.988-2.246-11.228-4.491-16.468z" />
<glyph unicode="&#xe933;" d="M968.608 320v0-0.749z" />
<glyph unicode="&#xe934;" d="M755.275 460.725v-175.906h-101.801v163.93c0 41.17-14.971 69.614-51.649 69.614-28.444 0-44.912-18.713-52.398-37.427-2.994-6.737-3.743-15.719-3.743-24.702v-171.415h-101.801c0 0 1.497 277.708 0 306.901h102.55v-43.415c0 0-0.749-0.749-0.749-0.749h0.749v0.749c13.474 20.959 37.427 50.901 92.070 50.901 66.62 0 116.772-44.164 116.772-138.48zM337.591 739.181c-35.181 0-57.637-23.205-57.637-53.146 0-29.193 22.456-53.146 56.14-53.146h0.749c35.181 0 57.637 23.205 57.637 53.146-0.749 30.69-21.708 53.146-56.889 53.146zM285.942 284.819h101.801v306.901h-101.801v-306.901z" />
<glyph unicode="&#xe935;" d="M902.737-33.31h-782.971c-49.404 0-89.825 40.421-89.825 89.825v782.971c0 49.404 40.421 89.825 89.825 89.825h782.971c49.404 0 89.825-40.421 89.825-89.825v-782.971c0-49.404-40.421-89.825-89.825-89.825z" />
<glyph unicode="&#xe936;" d="M511.251 715.977c-149.708 0-270.971-121.263-270.971-270.971 0-110.784 66.62-206.596 162.433-248.515-0.749 18.713 0 41.918 4.491 62.129 5.24 21.708 35.181 147.462 35.181 147.462s-8.982 17.216-8.982 42.667c0 40.421 23.205 70.363 52.398 70.363 24.702 0 36.678-18.713 36.678-40.421 0-24.702-15.719-62.129-23.953-96.561-6.737-28.444 14.222-52.398 42.667-52.398 51.649 0 86.082 65.871 86.082 144.468 0 59.135-39.673 104.047-113.029 104.047-82.339 0-133.24-61.38-133.24-129.497 0-23.953 6.737-40.421 17.965-53.146 5.24-5.988 5.988-8.234 3.743-14.971-1.497-5.24-4.491-17.216-5.24-21.708-1.497-6.737-7.485-8.982-13.474-6.737-38.175 15.719-55.392 56.889-55.392 103.298 0 77.099 65.123 169.17 193.871 169.17 103.298 0 171.415-74.854 171.415-155.696 0-106.292-59.135-185.637-145.965-185.637-29.193 0-56.889 15.719-65.871 33.684 0 0-15.719-62.129-18.713-74.854-5.988-20.959-17.216-41.918-26.947-58.386 24.702-7.485 50.152-11.228 77.099-11.228 149.708 0 270.971 121.263 270.971 270.971-2.246 151.205-123.509 272.468-273.216 272.468z" />
<glyph unicode="&#xe937;" d="M904.234-33.31h-782.971c-49.404 0-89.825 40.421-89.825 89.825v782.971c0 49.404 40.421 89.825 89.825 89.825h782.971c49.404 0 89.825-40.421 89.825-89.825v-782.971c0-49.404-40.421-89.825-89.825-89.825z" />
<glyph unicode="&#xe938;" d="M657.965 316.257h-135.485c-18.713 0-34.433 6.737-47.906 19.462-13.474 13.474-19.462 29.193-19.462 47.906v47.906h192.374c17.216 0 32.187 5.988 44.912 18.713s18.713 27.696 18.713 44.912c0 17.216-5.988 32.187-18.713 44.912s-27.696 18.713-44.912 18.713h-192.374v99.556c0 18.713-6.737 35.181-20.211 48.655s-29.193 20.211-47.906 20.211c-19.462 0-35.181-6.737-48.655-19.462-13.474-13.474-20.211-29.193-20.211-48.655v-275.462c0-56.14 20.211-104.795 59.883-144.468 39.673-40.421 88.327-59.883 144.468-59.883h135.485c18.713 0 35.181 6.737 47.906 20.211 13.474 13.474 20.211 29.193 20.211 48.655 0 18.713-6.737 35.181-20.211 48.655-13.474 12.725-29.193 19.462-47.906 19.462z" />
<glyph unicode="&#xe939;" glyph-name="half-stars" horiz-adv-x="5684" d="M530.65 962.22c-30.64-12.434-55.063-57.284-95.473-175.847-15.098-43.962-33.748-92.808-41.297-108.794-22.203-44.85-19.539-44.406-176.291-44.406s-174.515-2.664-200.715-31.528c-19.539-21.315-20.427-27.532-7.105-53.731 15.542-29.308 51.511-62.612 139.879-129.221 44.406-33.748 87.036-68.385 94.585-77.71 21.759-26.199 19.539-42.186-24.867-173.183-47.958-141.211-52.843-179.844-25.311-206.931 9.325-9.769 15.542-11.546 35.081-11.546 32.416 0 61.28 13.322 129.665 60.836 106.574 73.27 140.323 94.585 157.197 99.913 15.542 4.441 19.095 3.997 42.63-7.993 13.766-7.549 63.056-41.742 109.239-76.822 91.476-69.273 126.557-89.256 158.085-89.256 35.525 0 53.287 21.759 53.287 65.277 0 30.64-10.213 73.27-37.745 161.193-27.532 88.368-35.081 125.669-28.42 145.207 5.773 17.762 36.857 43.518 128.333 106.13 67.053 46.182 115.899 87.924 127.001 108.794 8.881 17.762 7.993 44.85-2.664 58.172-21.759 27.976-54.619 34.193-204.267 38.633-143.431 3.997-145.207 4.885-167.41 49.291-7.993 15.986-24.423 63.5-36.857 106.13-38.633 132.774-57.728 170.963-91.476 185.173-16.43 7.105-22.203 7.105-35.081 2.22zM1676.323 958.224c-32.86-20.427-47.514-48.846-91.92-175.847-17.318-49.291-35.969-98.581-41.742-110.127-19.095-37.301-15.098-36.413-181.62-39.077-127.889-2.22-148.76-3.552-164.302-10.213-39.077-17.318-49.291-40.853-33.748-76.378 11.99-27.532 42.63-56.395 125.669-119.008 84.815-63.5 111.903-87.48 119.008-105.242 7.549-17.762 0.888-44.85-39.521-158.973-34.193-98.137-42.63-132.33-39.521-166.078 4.885-50.623 49.735-63.056 111.015-31.084 17.762 9.325 65.721 40.409 106.574 68.829 75.046 52.399 119.896 78.598 134.994 78.598 15.098-0.444 51.511-23.535 134.994-87.036 93.696-71.049 128.333-90.588 160.305-90.588 17.318 0 24.423 2.664 35.969 12.878 12.878 11.101 14.21 15.542 15.986 42.186 2.664 38.633-2.664 62.612-35.081 166.966-18.206 59.504-27.532 97.249-29.308 120.34l-2.664 34.193 20.427 19.539c11.546 10.657 57.284 44.85 102.134 75.934s91.92 66.609 104.798 78.598c63.944 61.28 45.294 112.791-45.738 126.113-11.99 1.776-73.27 4.885-135.882 6.661-135.438 3.997-141.211 5.329-160.749 44.85-6.661 13.322-24.867 66.609-40.409 117.676-15.542 51.511-33.748 105.686-40.409 120.34-23.091 51.511-59.948 74.602-89.256 55.951zM2830.876 960c-31.528-13.766-51.511-50.623-93.252-171.407-16.43-47.514-35.525-98.137-42.63-111.903-21.315-42.63-15.098-40.853-183.84-43.518-127.889-2.22-148.76-3.552-164.302-10.213-38.633-17.318-49.291-41.297-34.193-74.602 11.99-27.088 44.85-58.172 127.445-120.784 119.452-91.032 126.113-99.025 117.676-142.099-2.664-15.098-18.206-63.944-34.193-109.239-45.294-129.665-52.843-166.078-39.521-197.606 8.881-20.871 22.647-29.308 49.291-29.308 31.528 0 69.273 19.539 155.421 79.931 79.931 55.951 108.35 73.27 131.441 80.375 13.766 4.441 18.65 3.552 38.189-6.217 12.434-6.661 61.28-40.853 108.35-76.378 99.469-75.046 128.333-91.032 161.193-91.032 37.745 0.444 51.511 17.762 51.511 65.721 0 37.301-4.441 55.951-38.633 167.41-14.654 47.958-25.311 91.92-26.644 110.127l-2.664 30.196 26.199 25.311c14.654 13.766 54.175 44.406 88.368 67.497 120.34 82.151 149.648 111.015 150.536 148.76 0.888 32.416-26.199 52.399-83.483 62.168-9.325 1.332-69.273 4.441-133.218 6.217-128.777 3.997-142.099 6.661-158.085 32.416-8.437 13.766-20.427 48.846-59.948 178.956-33.304 108.794-67.941 148.76-111.015 129.221zM3980.989 960c-29.752-12.878-48.402-45.294-83.927-146.984-41.742-119.452-55.063-150.98-69.717-164.746l-13.322-12.878-149.648-2.22c-148.76-2.22-149.648-2.22-171.851-13.322-15.986-7.993-24.423-15.986-30.196-27.532-18.65-38.189 11.99-77.266 131.886-167.41 87.924-66.609 118.12-95.917 118.12-115.011 0-18.206-12.878-63.056-45.738-157.197-43.518-124.781-47.514-163.858-20.871-190.945 10.657-10.657 15.986-12.434 36.857-12.434 32.86 0 73.714 21.315 167.41 87.036 67.497 47.514 118.12 77.266 132.33 77.266s50.623-23.091 130.997-83.483c103.466-78.154 131.886-94.141 166.078-94.141 28.864 0 42.186 10.657 50.179 39.965 7.549 27.532-0.888 71.049-34.193 182.064-15.986 52.399-29.752 107.906-31.084 122.56-2.664 27.088-2.22 27.532 15.986 47.514 10.213 11.101 54.175 44.406 97.249 74.602 43.074 29.752 88.368 62.168 100.357 72.382 75.49 62.168 65.277 119.896-23.535 135.882-15.542 2.664-80.375 6.661-144.319 8.437-101.69 2.664-118.564 4.441-133.662 11.99-23.535 11.546-32.86 31.972-67.053 143.875-41.297 137.214-56.84 168.742-87.924 183.84-18.206 8.437-22.647 8.437-40.409 0.888zM5157.745 912.352c0 23.935-19.405 43.34-43.34 43.34-27.398-0.178-51.777-17.318-61.147-43.029l-94.407-267.634c-3.064-8.659-11.279-14.432-20.471-14.432h-263.949c-35.924 0.044-65.055-29.041-65.055-64.966 0-19.272 8.526-37.567 23.313-49.957l224.916-186.416c6.883-5.728 9.547-15.054 6.705-23.535l-94.585-283.088c-11.368-34.059 7.016-70.916 41.12-82.24 19.983-6.661 41.964-3.242 58.971 9.236l270.21 198.095c11.146 8.171 17.718 21.182 17.674 34.992l0.044 729.633z" />
<glyph unicode="&#xe93a;" glyph-name="workgroup_people" horiz-adv-x="896" d="M432 272h32v-336h-32v336zM448 768c52.8 0 96 43.2 96 96s-43.2 96-96 96-96-43.2-96-96 43.2-96 96-96zM448 928c35.2 0 64-28.8 64-64s-28.8-64-64-64c-35.2 0-64 28.8-64 64s28.8 64 64 64zM160 208h32v-272h-32v272zM176 656c44.8 0 80 35.2 80 80s-35.2 80-80 80-80-35.2-80-80 35.2-80 80-80zM176 784c27.2 0 48-20.8 48-48s-20.8-48-48-48-48 20.8-48 48 20.8 48 48 48zM704 208h32v-272h-32v272zM720 656c44.8 0 80 35.2 80 80s-35.2 80-80 80-80-35.2-80-80 35.2-80 80-80zM720 784c27.2 0 48-20.8 48-48s-20.8-48-48-48-48 20.8-48 48 20.8 48 48 48zM800 624h-160c0 62.4-49.6 112-112 112h-160c-62.4 0-112-49.6-112-112h-160c-52.8 0-96-43.2-96-96v-288h64v-304h32v336h-64v256c0 35.2 28.8 64 64 64h160c35.2 0 64-28.8 64-64v-256h-64v-336h32v304h32v-304h32v592c0 41.6-27.2 76.8-64 89.6v6.4c0 44.8 35.2 80 80 80h160c44.8 0 80-35.2 80-80v-6.4c-36.8-12.8-64-48-64-89.6v-592h32v304h32v-304h32v336h-64v256c0 35.2 28.8 64 64 64h160c35.2 0 64-28.8 64-64v-256h-64v-336h32v304h64v288c0 52.8-43.2 96-96 96zM432 672h32v-32h-32v32zM432 608h32v-32h-32v32zM704 560h32v-32h-32v32zM160 560h32v-32h-32v32z" />
<glyph unicode="&#xe93b;" glyph-name="personal_wallet" horiz-adv-x="1130" d="M1024 818.759h-176.552v-35.31h176.552v-35.31h35.31v176.552h-105.931v-35.31h70.621zM723.862 395.034c-38.841 0-70.621-31.779-70.621-70.621s31.779-70.621 70.621-70.621 70.621 31.779 70.621 70.621-31.779 70.621-70.621 70.621zM723.862 289.103c-19.421 0-35.31 15.89-35.31 35.31s15.89 35.31 35.31 35.31 35.31-15.89 35.31-35.31-15.89-35.31-35.31-35.31zM918.069 642.207h35.31v-35.31h-35.31v35.31zM847.448 642.207h35.31v-35.31h-35.31v35.31zM776.828 642.207h35.31v-35.31h-35.31v35.31zM706.207 642.207h35.31v-35.31h-35.31v35.31zM635.586 642.207h35.31v-35.31h-35.31v35.31zM564.966 642.207h35.31v-35.31h-35.31v35.31zM494.345 642.207h35.31v-35.31h-35.31v35.31zM423.724 642.207h35.31v-35.31h-35.31v35.31zM353.103 642.207h35.31v-35.31h-35.31v35.31zM282.483 642.207h35.31v-35.31h-35.31v35.31zM211.862 642.207h35.31v-35.31h-35.31v35.31zM141.241 642.207h35.31v-35.31h-35.31v35.31zM918.069 41.931h35.31v-35.31h-35.31v35.31zM847.448 41.931h35.31v-35.31h-35.31v35.31zM776.828 41.931h35.31v-35.31h-35.31v35.31zM706.207 41.931h35.31v-35.31h-35.31v35.31zM635.586 41.931h35.31v-35.31h-35.31v35.31zM564.966 41.931h35.31v-35.31h-35.31v35.31zM494.345 41.931h35.31v-35.31h-35.31v35.31zM423.724 41.931h35.31v-35.31h-35.31v35.31zM353.103 41.931h35.31v-35.31h-35.31v35.31zM282.483 41.931h35.31v-35.31h-35.31v35.31zM211.862 41.931h35.31v-35.31h-35.31v35.31zM141.241 41.931h35.31v-35.31h-35.31v35.31zM1059.31 571.586v141.241h-935.724c-49.434 0-88.276 38.841-88.276 88.276s38.841 88.276 88.276 88.276h123.586v35.31h-123.586c-68.855 0-123.586-54.731-123.586-123.586v-741.517c0-68.855 54.731-123.586 123.586-123.586h935.724v247.172c38.841 0 70.621 31.779 70.621 70.621v247.172c0 38.841-31.779 70.621-70.621 70.621zM1024-28.69h-900.414c-49.434 0-88.276 38.841-88.276 88.276v655.007c22.952-22.952 52.966-37.076 88.276-37.076h900.414v-211.862h-300.138c-77.683 0-141.241-63.559-141.241-141.241s63.559-141.241 141.241-141.241h300.138v-211.862zM1094.621 253.793c0-19.421-15.89-35.31-35.31-35.31h-335.448c-58.262 0-105.931 47.669-105.931 105.931s47.669 105.931 105.931 105.931h335.448c12.359 0 24.717 3.531 35.31 8.828v-185.379zM1059.31 465.655v70.621c19.421 0 35.31-15.89 35.31-35.31s-15.89-35.31-35.31-35.31zM176.552 854.069v-70.621h35.31v35.31h35.31v-35.31h35.31v35.31h105.931v-35.31h35.31v35.31h35.31v-35.31h35.31v35.31h35.31v-35.31h35.31v35.31h35.31v-35.31h35.31v35.31h35.31v-35.31h35.31v35.31h70.621v-35.31h35.31v70.621h-494.345v70.621h35.31v-35.31h35.31v35.31h105.931v-35.31h35.31v35.31h35.31v-35.31h35.31v35.31h35.31v-35.31h35.31v35.31h35.31v-35.31h35.31v35.31h35.31v-35.31h35.31v35.31h70.621v-70.621h35.31v105.931h-635.586v-105.931z" />
<glyph unicode="&#xe93c;" glyph-name="budget_accounting" d="M544 608v-672h480v672h-480zM992-32h-416v608h416v-608zM624 0h64c9.6 0 16 6.4 16 16v64c0 9.6-6.4 16-16 16h-64c-9.6 0-16-6.4-16-16v-64c0-9.6 6.4-16 16-16zM640 64h32v-32h-32v32zM816 96h-64c-9.6 0-16-6.4-16-16v-64c0-9.6 6.4-16 16-16h64c9.6 0 16 6.4 16 16v64c0 9.6-6.4 16-16 16zM800 32h-32v32h32v-32zM944 96h-64c-9.6 0-16-6.4-16-16v-64c0-9.6 6.4-16 16-16h64c9.6 0 16 6.4 16 16v64c0 9.6-6.4 16-16 16zM928 32h-32v32h32v-32zM624 128h64c9.6 0 16 6.4 16 16v64c0 9.6-6.4 16-16 16h-64c-9.6 0-16-6.4-16-16v-64c0-9.6 6.4-16 16-16zM640 192h32v-32h-32v32zM816 224h-64c-9.6 0-16-6.4-16-16v-64c0-9.6 6.4-16 16-16h64c9.6 0 16 6.4 16 16v64c0 9.6-6.4 16-16 16zM800 160h-32v32h32v-32zM944 224h-64c-9.6 0-16-6.4-16-16v-64c0-9.6 6.4-16 16-16h64c9.6 0 16 6.4 16 16v64c0 9.6-6.4 16-16 16zM928 160h-32v32h32v-32zM624 256h64c9.6 0 16 6.4 16 16v64c0 9.6-6.4 16-16 16h-64c-9.6 0-16-6.4-16-16v-64c0-9.6 6.4-16 16-16zM640 320h32v-32h-32v32zM816 352h-64c-9.6 0-16-6.4-16-16v-64c0-9.6 6.4-16 16-16h64c9.6 0 16 6.4 16 16v64c0 9.6-6.4 16-16 16zM800 288h-32v32h32v-32zM944 352h-64c-9.6 0-16-6.4-16-16v-64c0-9.6 6.4-16 16-16h64c9.6 0 16 6.4 16 16v64c0 9.6-6.4 16-16 16zM928 288h-32v32h32v-32zM608 416h352v-32h-352v32zM608 544h352v-32h-352v32zM896 480h32v-32h-32v32zM832 480h32v-32h-32v32zM768 480h32v-32h-32v32zM704 480h32v-32h-32v32zM864 848c0 9.6-6.4 16-16 16h-544c-9.6 0-16-6.4-16-16v-64c0-9.6 6.4-16 16-16h544c9.6 0 16 6.4 16 16v64zM832 800h-512v32h512v-32zM288 512h32v-320h-32v320zM352 416h32v-224h-32v224zM416 608h32v-416h-32v416zM480 480h32v-288h-32v288zM288 160h224v-32h-224v32zM288 736h32v-32h-32v32zM352 736h32v-32h-32v32zM416 736h32v-32h-32v32zM480 736h384v-32h-384v32zM448 6.4l-36.8 36.8c-6.4 6.4-16 6.4-22.4 0l-36.8-36.8-36.8 36.8c-6.4 6.4-16 6.4-22.4 0l-36.8-36.8-32 32v857.6c0 11.2-3.2 22.4-9.6 32h681.6c17.6 0 32-14.4 32-32v-256h32v256c0 35.2-28.8 64-64 64h-736c-35.2 0-64-28.8-64-64v-800c0-17.6-14.4-32-32-32s-32 14.4-32 32v672h32v32h-48c-9.6 0-16-6.4-16-16v-688c0-35.2 28.8-64 64-64h96v32h-41.6c6.4 9.6 9.6 20.8 9.6 32v800c0 17.6 14.4 32 32 32s32-14.4 32-32v-864c0-4.8 1.6-8 4.8-11.2l48-48c6.4-6.4 16-6.4 22.4 0l36.8 36.8 36.8-36.8c6.4-6.4 16-6.4 22.4 0l36.8 36.8 36.8-36.8c3.2-3.2 8-4.8 11.2-4.8s8 1.6 11.2 4.8l48 48-22.4 22.4-36.8-36.8z" />
<glyph unicode="&#xe93d;" glyph-name="social_engagement" horiz-adv-x="1092" d="M785.067 362.667v17.067c0 1.707 0 5.12-1.707 6.827l-100.693 235.52v116.053c0 47.787-37.547 85.333-85.333 85.333h-119.467v-34.133h119.467c29.013 0 51.2-22.187 51.2-51.2v-119.467c0-1.707 0-5.12 1.707-6.827l98.987-232.107h-83.627c-10.24 0-17.067-6.827-17.067-17.067v-170.667c0-29.013-22.187-51.2-51.2-51.2h-307.2c-10.24 0-17.067-6.827-17.067-17.067v-129.707l-141.653 141.653c-3.413 3.413-6.827 5.12-11.947 5.12h-34.133c-29.013 0-51.2 22.187-51.2 51.2v546.133c0 29.013 22.187 51.2 51.2 51.2h290.133v34.133h-290.133c-47.787 0-85.333-37.547-85.333-85.333v-546.133c0-47.787 37.547-85.333 85.333-85.333h27.307l165.547-165.547c3.413-3.413 6.827-5.12 11.947-5.12 1.707 0 5.12 0 6.827 1.707 6.827 3.413 10.24 8.533 10.24 15.36v153.6h290.133c47.787 0 85.333 37.547 85.333 85.333v153.6h85.333c10.24 0 17.067 6.827 17.067 17.067zM1006.933 960h-512c-47.787 0-85.333-37.547-85.333-85.333v-150.187l-100.693-235.52c-1.707-1.707-1.707-5.12-1.707-6.827v-17.067c0-10.24 6.827-17.067 17.067-17.067h85.333v-119.467c0-47.787 37.547-85.333 85.333-85.333h119.467v34.133h-119.467c-29.013 0-51.2 22.187-51.2 51.2v136.533c0 10.24-6.827 17.067-17.067 17.067h-83.627l98.987 232.107c1.707 1.707 1.707 5.12 1.707 6.827v153.6c0 29.013 22.187 51.2 51.2 51.2h512c29.013 0 51.2-22.187 51.2-51.2v-546.133c0-29.013-22.187-51.2-51.2-51.2h-34.133c-5.12 0-8.533-1.707-11.947-5.12l-141.653-141.653v129.707c0 10.24-6.827 17.067-17.067 17.067h-85.333v-34.133h68.267v-153.6c0-6.827 3.413-13.653 10.24-15.36 1.707-1.707 5.12-1.707 6.827-1.707 5.12 0 8.533 1.707 11.947 5.12l165.547 165.547h27.307c47.787 0 85.333 37.547 85.333 85.333v546.133c0 47.787-37.547 85.333-85.333 85.333zM750.933 823.467h238.933v-34.133h-238.933v34.133zM750.933 755.2h238.933v-34.133h-238.933v34.133zM750.933 686.933h170.667v-34.133h-170.667v34.133zM102.4 721.067h204.8v-34.133h-204.8v34.133zM102.4 652.8h204.8v-34.133h-204.8v34.133zM102.4 584.533h136.533v-34.133h-136.533v34.133z" />
<glyph unicode="&#xe93e;" glyph-name="web_analytics" horiz-adv-x="1092" d="M1006.933-29.867h-921.6v153.6h-34.133v-187.733h989.867v648.533h-34.133zM85.333 925.867h921.6v-136.533h34.133v170.667h-989.867v-631.467h34.133zM1024 755.2c-37.547 0-68.267-30.72-68.267-68.267 0-11.947 3.413-23.893 10.24-34.133l-249.173-249.173c-10.24 6.827-22.187 10.24-34.133 10.24-17.067 0-32.427-6.827-44.373-17.067l-153.6 153.6c6.827 10.24 10.24 22.187 10.24 34.133 0 37.547-30.72 68.267-68.267 68.267s-68.267-30.72-68.267-68.267c0-11.947 3.413-23.893 10.24-34.133l-266.24-266.24c-10.24 6.827-22.187 10.24-34.133 10.24-37.547 0-68.267-30.72-68.267-68.267s30.72-68.267 68.267-68.267 68.267 30.72 68.267 68.267c0 11.947-3.413 23.893-10.24 34.133l266.24 266.24c10.24-6.827 22.187-10.24 34.133-10.24s23.893 3.413 34.133 10.24l157.013-157.013c-1.707-8.533-3.413-15.36-3.413-23.893 0-37.547 30.72-68.267 68.267-68.267s68.267 30.72 68.267 68.267c0 11.947-3.413 23.893-10.24 34.133l249.173 249.173c10.24-6.827 22.187-10.24 34.133-10.24 37.547 0 68.267 30.72 68.267 68.267s-30.72 68.267-68.267 68.267zM68.267 192c-18.773 0-34.133 15.36-34.133 34.133s15.36 34.133 34.133 34.133 34.133-15.36 34.133-34.133-15.36-34.133-34.133-34.133zM392.533 584.533c0 18.773 15.36 34.133 34.133 34.133s34.133-15.36 34.133-34.133-15.36-34.133-34.133-34.133-34.133 15.36-34.133 34.133zM682.667 311.467c-18.773 0-34.133 15.36-34.133 34.133s15.36 34.133 34.133 34.133 34.133-15.36 34.133-34.133-15.36-34.133-34.133-34.133zM1024 652.8c-18.773 0-34.133 15.36-34.133 34.133s15.36 34.133 34.133 34.133 34.133-15.36 34.133-34.133-15.36-34.133-34.133-34.133zM153.6 857.6h34.133v-34.133h-34.133v34.133zM153.6 789.333h34.133v-34.133h-34.133v34.133zM119.467 140.8h34.133v-136.533h-34.133v136.533zM187.733 277.333h34.133v-273.067h-34.133v273.067zM597.333 260.267h34.133v-256h-34.133v256zM665.6 243.2h34.133v-238.933h-34.133v238.933zM733.867 260.267h34.133v-256h-34.133v256zM802.133 396.8h34.133v-392.533h-34.133v392.533zM870.4 465.067h34.133v-460.8h-34.133v460.8zM938.667 533.333h34.133v-529.067h-34.133v529.067zM256 345.6h34.133v-341.333h-34.133v341.333zM324.267 413.867h34.133v-409.6h-34.133v409.6zM529.067 379.733h34.133v-375.467h-34.133v375.467zM460.8 448h34.133v-443.733h-34.133v443.733zM392.533 482.133h34.133v-477.867h-34.133v477.867zM460.8 857.6h443.733v-34.133h-443.733v34.133zM221.867 857.6h204.8v-34.133h-204.8v34.133zM221.867 789.333h512v-34.133h-512v34.133z" />
<glyph unicode="&#xe93f;" glyph-name="viral_marketing" d="M736 672h-416v-32h416v-512h-464c-4.8 0-8-1.6-11.2-4.8l-132.8-132.8v121.6c0 9.6-6.4 16-16 16h-80v512h192v32h-192c-17.6 0-32-14.4-32-32v-512c0-17.6 14.4-32 32-32h64v-144c0-6.4 3.2-12.8 9.6-14.4 1.6-1.6 4.8-1.6 6.4-1.6 4.8 0 8 1.6 11.2 4.8l155.2 155.2h457.6c17.6 0 32 14.4 32 32v512c0 17.6-14.4 32-32 32zM992 800h-64v144c0 6.4-3.2 12.8-9.6 14.4-6.4 3.2-12.8 1.6-17.6-3.2l-155.2-155.2h-457.6c-17.6 0-32-14.4-32-32v-512c0-17.6 14.4-32 32-32h416v32h-416v512h464c4.8 0 8 1.6 11.2 4.8l132.8 132.8v-121.6c0-9.6 6.4-16 16-16h80v-512h-192v-32h192c17.6 0 32 14.4 32 32v512c0 17.6-14.4 32-32 32zM659.2 448l-243.2 121.6v-243.2l243.2 121.6zM448 518.4l140.8-70.4-140.8-70.4v140.8z" />
<glyph unicode="&#xe940;" glyph-name="subscription_model" horiz-adv-x="1092" d="M658.773 72.533l-34.133-34.133h-157.013l-34.133 34.133h-433.493v-58.027l78.507-78.507h935.253l78.507 78.507v58.027h-433.493zM1058.133 28.16l-58.027-58.027h-907.947l-58.027 58.027v10.24h385.707l34.133-34.133h184.32l34.133 34.133h385.707v-10.24zM102.4 618.667c0 18.773 15.36 34.133 34.133 34.133h102.4v34.133h-102.4c-37.547 0-68.267-30.72-68.267-68.267v-512h34.133v512zM989.867 396.8h34.133v-290.133h-34.133v290.133zM238.933 584.533v34.133h-102.4v-477.867h819.2v256h-34.133v-221.867h-750.933v409.6zM341.333 789.333h409.6v-34.133h-409.6v34.133zM341.333 721.067h409.6v-34.133h-409.6v34.133zM341.333 652.8h409.6v-34.133h-409.6v34.133zM307.2 857.6c0 37.547 30.72 68.267 68.267 68.267h426.667c-10.24-13.653-17.067-32.427-17.067-51.2v-665.6h34.133v665.6c0 29.013 22.187 51.2 51.2 51.2s51.2-22.187 51.2-51.2v-375.467c0-11.947 3.413-23.893 10.24-34.133h-78.507v-34.133h136.533c37.547 0 68.267 30.72 68.267 68.267v358.4h-68.267v-34.133h34.133v-324.267c0-18.773-15.36-34.133-34.133-34.133s-34.133 15.36-34.133 34.133v375.467c0 47.787-37.547 85.333-85.333 85.333h-494.933c-56.32 0-102.4-46.080-102.4-102.4v-648.533h34.133v648.533zM529.067 857.6h34.133v-34.133h-34.133v34.133zM460.8 857.6h34.133v-34.133h-34.133v34.133zM597.333 857.6h34.133v-34.133h-34.133v34.133zM546.133 482.133c18.773 0 34.133-15.36 34.133-34.133h34.133c0 32.427-22.187 58.027-51.2 66.56v35.84h-34.133v-35.84c-29.013-6.827-51.2-34.133-51.2-66.56 0-37.547 51.2-61.44 61.44-66.56 18.773-8.533 40.96-25.6 40.96-35.84 0-18.773-15.36-34.133-34.133-34.133s-34.133 15.36-34.133 34.133h-34.133c0-32.427 22.187-58.027 51.2-66.56v-35.84h34.133v35.84c29.013 6.827 51.2 34.133 51.2 66.56 0 37.547-51.2 61.44-61.44 66.56-18.773 8.533-40.96 25.6-40.96 35.84 0 18.773 15.36 34.133 34.133 34.133zM648.533 413.867h34.133v-34.133h-34.133v34.133zM409.6 413.867h34.133v-34.133h-34.133v34.133z" />
<glyph unicode="&#xe941;" glyph-name="download-bottom" d="M512.043 256c-3.755 0-7.467 0.683-11.093 2.005-0.341 0.128-0.64 0.213-0.939 0.341-4.096 1.664-7.637 4.011-10.624 7.040l-191.957 192c-6.059 6.016-9.387 14.080-9.387 22.613s3.328 16.597 9.387 22.613c6.016 6.059 14.080 9.387 22.613 9.387s16.597-3.328 22.613-9.387l137.387-137.387v434.773c0 17.664 14.336 32 32 32s32-14.336 32-32v-434.731l137.387 137.387c6.059 6.059 14.080 9.387 22.613 9.387s16.597-3.328 22.613-9.387c6.059-6.016 9.387-14.080 9.387-22.613s-3.328-16.597-9.387-22.613l-192-192c-2.987-2.987-6.528-5.333-10.496-6.997-0.341-0.128-0.725-0.299-1.109-0.427-3.627-1.365-7.296-2.005-11.008-2.005zM160.043 64c-88.235 0-160 71.765-160 160v64c0 17.664 14.336 32 32 32s32-14.336 32-32v-64c0-52.949 43.051-96 96-96h704c52.949 0 96 43.051 96 96v64c0 17.664 14.336 32 32 32s32-14.336 32-32v-64c0-88.235-71.765-160-160-160h-704z" />
<glyph unicode="&#xe942;" glyph-name="project-details" horiz-adv-x="832" d="M64 928h544v-144c0-8.832 7.152-16 16-16h144v-208h32v224c0 4.24-1.68 8.32-4.688 11.312l-160 160c-2.992 3.008-7.056 4.688-11.312 4.688h-576c-8.832 0-16-7.168-16-16v-384h32v368zM640 905.376l105.376-105.376h-105.376v105.376zM768-32h-704v368h-32v-384c0-8.848 7.168-16 16-16h736c8.848 0 16 7.152 16 16v384h-32v-368zM128 864h32v-32h-32v32zM192 864h32v-32h-32v32zM256 864h32v-32h-32v32zM128 800h416v-32h-416v32zM128 736h576v-32h-576v32zM128 128h576v-32h-576v32zM128 192h576v-32h-576v32zM128 64h576v-32h-576v32zM827.632 458.992c-8.24 8.704-203.888 213.008-411.632 213.008s-403.392-204.304-411.632-213.008c-5.84-6.16-5.84-15.824 0-21.984 8.24-8.688 203.888-213.008 411.632-213.008s403.392 204.32 411.632 213.008c5.824 6.16 5.824 15.824 0 21.984zM608 448c0-99.024-75.36-180.752-171.744-190.912-6.752-0.464-13.488-1.088-20.256-1.088s-13.504 0.624-20.256 1.088c-96.384 10.16-171.744 91.888-171.744 190.912s75.36 180.752 171.744 190.912c6.752 0.464 13.488 1.088 20.256 1.088s13.504-0.624 20.256-1.088c96.384-10.16 171.744-91.888 171.744-190.912zM249.792 597.648c-35.792-39.728-57.792-92.096-57.792-149.648s22-109.936 57.792-149.648c-100.352 47.584-182.4 121.792-211.136 149.648 28.736 27.856 110.784 102.064 211.136 149.648zM582.208 298.352c35.792 39.712 57.792 92.096 57.792 149.648s-22 109.92-57.792 149.648c100.368-47.584 182.4-121.792 211.136-149.648-28.736-27.856-110.784-102.064-211.136-149.648zM383.968 576l19.248-25.616c8.368-11.136 12.784-24.4 12.784-38.384 0-35.296-28.704-64-64-64-14 0-27.264 4.416-38.384 12.784l-25.616 19.28v-32.064c0-70.576 57.424-128 128-128s128 57.424 128 128-57.424 128-128 128h-32.032zM443.904 539.856c39.376-11.984 68.096-48.624 68.096-91.856 0-52.944-43.056-96-96-96-43.232 0-79.872 28.72-91.856 68.080 8.928-2.688 18.272-4.080 27.856-4.080 52.944 0 96 43.056 96 96 0 9.568-1.392 18.928-4.096 27.856z" />
<glyph unicode="&#xe943;" glyph-name="employee-data" horiz-adv-x="1092" d="M375.467 243.2v34.133h-17.067c-83.268 0-159.061 31.812-216.542 83.593l233.609 233.609v330.411c87.381-4.608 167.168-43.861 225.963-112.589l25.941 22.204c-69.222 80.896-164.745 125.44-268.971 125.44-197.632 0-358.4-160.768-358.4-358.4 0-197.615 160.768-358.4 358.4-358.4h17.067zM341.333 924.996v-306.33h-306.33c8.653 165.154 141.175 297.677 306.33 306.33zM35.004 584.533h282.197l-199.475-199.475c-48.196 53.504-78.711 122.948-82.722 199.475zM936.073 251.529c-28.655 10.889-58.249 22.255-87.979 38.844l-37.871 56.798-8.090-1.331v43.059c16.23 15.036 53.879 59.597 68.096 159.095l0.171 70.673c0 113.254-57.412 170.667-170.667 170.667s-170.667-57.412-170.667-170.667v-68.267l0.171-2.423c14.217-99.499 51.866-144.043 68.096-159.095v-43.059l-8.090 1.348-37.871-56.798c-29.73-16.589-59.324-27.955-87.979-38.844-80.316-30.515-156.194-59.358-156.194-196.062v-119.467h34.133v119.467c0 113.169 53.385 133.444 134.195 164.164 26.061 9.899 55.211 21.248 84.497 36.745l68.079-68.079 71.629 35.823 71.629-35.823 68.079 68.079c29.286-15.497 58.436-26.846 84.497-36.745 80.811-30.72 134.195-50.995 134.195-164.164v-119.467h34.133v119.467c0 136.704-75.861 165.547-156.194 196.062zM699.733 755.2c90.829 0 133.137-39.117 136.226-126.14l-51.678-25.839-170.667 68.267-48.862-24.422c8.158 74.428 50.671 108.134 134.98 108.134zM563.2 551.629v56.491l51.985 25.993 170.667-68.267 50.415 25.207v-39.424c-14.677-100.847-54.75-135.902-60.092-140.169-30.054-14.404-75.998-14.66-76.425-14.66-0.461 0-46.336 0.256-76.425 14.626-5.803 4.676-45.534 39.902-60.126 140.203zM631.467 372.19c32.58-9.353 66.492-9.523 68.267-9.523s35.686 0.171 68.267 9.523v-32.034l-68.267-11.383-68.267 11.383v32.034zM764.638 229.837l-64.905 32.444-64.905-32.444-49.664 49.664 20.258 30.379 94.31-15.718 94.31 15.718 20.258-30.379-49.664-49.664zM682.667 106.667h34.133v-34.133h-34.133v34.133zM682.667 174.933h34.133v-34.133h-34.133v34.133zM443.733 38.4h34.133v-102.4h-34.133v102.4zM921.6 38.4h34.133v-102.4h-34.133v102.4z" />
<glyph unicode="&#xe944;" glyph-name="leadership-growth" d="M336 32h-320c-8.832 0-16-7.152-16-16v-80h32v64h288v-64h32v80c0 8.848-7.168 16-16 16zM656 128h-320c-8.832 0-16-7.152-16-16v-48h32v32h288v-160h32v176c0 8.848-7.152 16-16 16zM1008 224h-352c-8.848 0-16-7.152-16-16v-48h32v32h320v-256h32v272c0 8.848-7.152 16-16 16zM464 800c44.112 0 80 35.888 80 80s-35.888 80-80 80-80-35.888-80-80 35.888-80 80-80zM464 928c26.464 0 48-21.536 48-48s-21.536-48-48-48-48 21.536-48 48 21.536 48 48 48zM148.688 580.688c3.12-3.12 7.216-4.688 11.312-4.688s8.192 1.568 11.312 4.688l92.864 92.864 54.368 13.584-14.32-155.84-46.224-138.672-125.328-125.328c-6.256-6.256-6.256-16.368 0-22.624l48-48c3.12-3.088 7.216-4.672 11.328-4.672 3.584 0 7.168 1.184 10.128 3.616l176 144c2.464 2.032 4.272 4.736 5.2 7.792l33.568 111.872 100.8-25.2 92.592-154.32c2.976-4.96 8.256-7.76 13.728-7.76 2.4 0 4.848 0.544 7.136 1.68l64 32c7.696 3.84 10.976 13.088 7.408 20.944l-80 176c-1.52 3.344-4.128 6.048-7.408 7.696l-148.128 74.064 25.408 88.912 133.328 14.816c3.616 0.4 6.992 2.016 9.552 4.592l112 112c6.256 6.256 6.256 16.368 0 22.624l-48 48c-6.256 6.256-16.368 6.256-22.624 0l-91.312-91.328h-105.376v-32h112c4.256 0 8.32 1.68 11.312 4.688l84.688 84.688 25.376-25.376-96.72-96.72-138.416-15.376c-6.448-0.704-11.84-5.264-13.616-11.504l-32-112c-2.112-7.408 1.344-15.264 8.224-18.704l154.944-77.472 71.264-156.8-36.96-18.48-88.368 147.296c-2.192 3.632-5.712 6.256-9.84 7.296l-105.776 26.448 5.232 17.44-30.656 9.184-46.608-155.328-160.992-131.728-26.464 26.448 116.688 116.688c1.76 1.744 3.072 3.888 3.872 6.256l48 144c0.384 1.168 0.64 2.368 0.752 3.6l15.504 168.832 36.448 9.104-7.76 31.040-128-32c-2.816-0.704-5.376-2.16-7.424-4.208l-84.704-84.688-25.376 25.376 97.68 97.68 171.904 46.88-8.416 30.88-176-48c-2.688-0.736-5.136-2.16-7.104-4.128l-112-112c-6.256-6.256-6.256-16.368 0-22.624l48-48z" />
</font>
</defs>
</svg>
